<?xml version="1.0" standalone="no"?>
<!DOCTYPE svg PUBLIC "-//W3C//DTD SVG 1.1//EN" "http://www.w3.org/Graphics/SVG/1.1/DTD/svg11.dtd">
<svg xmlns="http://www.w3.org/2000/svg">
<metadata>Generated by Fontastic.me</metadata>
<defs>
<font id="apex-5-icon-font" horiz-adv-x="512">
<font-face font-family="apex-5-icon-font" units-per-em="512" ascent="480" descent="-32"/>
<missing-glyph horiz-adv-x="512" />

<glyph unicode="&#57346;" d="M128 256l192 128 0-256z"/>
<glyph unicode="&#57347;" d="M0 512l160 0-160-160z"/>
<glyph unicode="&#57350;" d="M256 480c-124 0-224-100-224-224 0-124 100-224 224-224 124 0 224 100 224 224 0 124-100 224-224 224z m0-416c-106 0-192 86-192 192 0 106 86 192 192 192 106 0 192-86 192-192 0-106-86-192-192-192z m128 192c0-71-57-128-128-128-71 0-128 57-128 128 0 71 57 128 128 128 71 0 128-57 128-128z"/>
<glyph unicode="&#57360;" d="M413 99c-87-86-231-86-317 0-86 87-86 231 0 317 86 86 230 86 317 0 89-90 89-230 0-317z m-39 231c10 9 10 25 0 35l-12 13c-10 9-26 9-36 0l-70-77-74 73c-9 10-25 10-35 0l-9-9c-10-10-10-26 0-35l73-74-73-74c-10-9-10-25 0-35l12-13c10-9 26-9 36 0l70 77 74-73c9-10 25-10 35 0l13 12c9 10 9 26 0 36l-77 70z"/>
<glyph unicode="&#57361;" d="M448 32l-384 0c-19 0-32 13-32 32l0 320c0 19 13 32 32 32l32 0 0 32c0 19 13 32 32 32l32 0c19 0 32-13 32-32l0-32 128 0 0 32c0 19 13 32 32 32l32 0c19 0 32-13 32-32l0-32 32 0c19 0 32-13 32-32l0-320c0-19-13-32-32-32z m-288 400c0 10-6 16-16 16-10 0-16-6-16-16l0-64c0-10 6-16 16-16 10 0 16 6 16 16z m224 0c0 10-6 16-16 16-10 0-16-6-16-16l0-64c0-10 6-16 16-16 10 0 16 6 16 16z m64-112l-384 0 0-256 384 0z"/>
<glyph unicode="&#57420;" d="M311 190c0 0 18-15 22-28 8 0 55-19 94-38-41-49-103-81-171-81-68 0-130 32-171 81 39 19 86 38 94 38 4 11 22 28 22 28l8 0 2 21c0 0-10 11-15 13-4 6-21 73-21 73 0 0 0 6-4 8-2 2-11 24-7 38 5 9 11 9 11 9 0 0 0 23 0 45 0 28 28 70 81 72 53-2 81-44 81-72 0-22 0-45 0-45 0 0 9 0 11-9 4-14-5-36-9-38-2-2-6-6-6-6 0 0-17-69-22-73-4-4-14-13-14-13l2-21 12 0z"/>
<glyph unicode="&#57427;" d="M-1834 128c0-6 0-10 0-16 26-13 42-32 42-64 0-3-22 16-22 16 0 0-4 13-23 26-3-13-6-23-13-32 10-13 16-32 16-61 0-3-12 19-12 19 0 0-4 13-13 26-10-13-23-20-35-23l0 115c0 7-4 10-10 10-6 0-10-3-10-10l0-115c-12 3-25 10-35 23-9-13-13-26-13-26 0 0-12-19-12-19 0 25 6 45 16 61-7 9-10 22-13 32-19-13-23-26-23-26 0 0-22-19-22-16 0 32 16 51 42 64 0 3 0 10 0 13-26 19-42 45-42 73 0 4 22-16 22-16 0 0 4-19 23-35 0 7 3 13 3 19l131 0c3-6 3-12 3-19 16 16 23 35 23 35 0 0 19 23 19 23 0-32-16-58-42-77z m-70 128c26 0 48-29 51-64l-99 0c0 35 22 64 48 64z m19-42c7 0 10 4 10 10 0 6-3 10-10 10-6 0-9-4-9-10 0-6 6-10 9-10z m-38 0c6 0 9 4 9 10 0 6-3 10-9 10-7 0-10-4-10-10 0-6 3-10 10-10z m-269-118c-10 0-16 6-16 16 0 10 6 16 16 16 10 0 16-6 16-16 0-10-6-16-16-16z m0 128c-10 0-16 6-16 16 0 10 6 16 16 16 10 0 16-6 16-16 0-10-6-16-16-16z m0-64c-10 0-16 6-16 16 0 10 6 16 16 16 10 0 16-6 16-16 0-10-6-16-16-16z m144-64l-80 0c-10 0-16 6-16 16 0 10 6 16 16 16l80 0z m-96 144c0 10 6 16 16 16l80 0 0-32-80 0c-10 0-16 6-16 16z m80-80l-64 0c-10 0-16 6-16 16 0 10 6 16 16 16l64 0c10 0 16-6 16-16 0-10-6-16-16-16z m80 288l-128 0 0-112c0-10-6-16-16-16l-112 0 0-256 192 0 0-32-208 0c-10 0-16 6-16 16l0 307 125 125 179 0c10 0 16-6 16-16l0-176-32 0z m1184-189c0-3 0-3 0 0 0-9 0-16 0-22 38-19 64-48 64-93 0-3-32 26-32 26 0 0-6 19-38 38-4-19-13-35-20-51 16-19 26-51 26-90 0-3-22 26-22 26 0 0-4 22-23 41-16-16-32-28-54-32l0 170c0 10-7 16-16 16-10 0-13-6-13-16l0-173c-19 3-38 16-54 32-16-19-23-41-23-41 0 0-19-29-19-26 0 38 10 67 26 90-10 16-16 32-20 51-28-16-38-39-38-39 0 0-32-25-32-25 0 45 26 77 64 93 0 6 0 12 0 19 0 0 0 0 0 3-38 26-64 67-64 112 0 3 32-26 32-26 0 0 6-28 35-54 0 10 3 19 7 29l204 0c4-10 7-19 7-29 29 26 35 54 35 54 0 0 32 26 32 26 0-42-26-83-64-109z m-112 189c42 0 74-42 80-96l-160 0c6 54 38 96 80 96z m32-64c10 0 16 6 16 16 0 10-6 16-16 16-10 0-16-6-16-16 0-10 6-16 16-16z m-64 0c10 0 16 6 16 16 0 10-6 16-16 16-10 0-16-6-16-16 0-10 6-16 16-16z m1312-352c-61 0-112 51-112 112 0 61 51 112 112 112 61 0 112-51 112-112 0-61-51-112-112-112z m64 128l-48 0 0 48c0 10-6 16-16 16-10 0-16-6-16-16l0-64c0-10 6-16 16-16l64 0c10 0 16 6 16 16 0 10-6 16-16 16z m-102 122c-4 0-7 0-10-4l0 170-128 0 0-112c0-10-6-16-16-16l-112 0 0-256 179 0c7-13 13-22 23-32l-218 0c-10 0-16 6-16 16l0 307 125 125 179 0c10 0 16-6 16-16l0-179c-3 0-10 0-13 0-3 0-6 0-9-3z m2358 182l0-208-32-32 0 224-128 0 0-112c0-10-6-16-16-16l-112 0 0-256 138 0-13-32-141 0c-10 0-16 6-16 16l0 307 125 125 179 0c10 0 16-6 16-16z m-35-438l-93-26 26 93z m96 230l67-67-144-144-67 67z m-1149 48l0 16-384 0 0-176c0-10 6-16 16-16l144 0 0-32-144 0c-26 0-48 22-48 48l0 224c0 26 22 48 48 48l352 0c26 0 48-22 48-48l0-80-32 0z m-368 80c-10 0-16-6-16-16 0-10 6-16 16-16 10 0 16 6 16 16 0 10-6 16-16 16z m64 0c-10 0-16-6-16-16 0-10 6-16 16-16 10 0 16 6 16 16 0 10-6 16-16 16z m64 0c-10 0-16-6-16-16 0-10 6-16 16-16 10 0 16 6 16 16 0 10-6 16-16 16z m141-358l-93-26 26 93z m96 230l67-67-144-144-67 67z"/>
<glyph unicode="&#57432;" d="M362 352c-4-10-10-19-16-29-4 3-7 3-10 7-26 12-45 25-54 38 3-16 6-38 6-67 0-3 0-7 0-13-6 0-13 0-16 0-6 0-13 0-16 3 0 3 0 7 0 13 0 26 3 51 6 64-12-13-32-26-54-38-3-4-6-4-10-7-9 10-12 19-16 29 4 0 4 3 10 6 22 13 45 23 58 26-13 3-36 13-58 29-6 0-6 3-10 3 4 10 10 19 16 29 4-3 7-3 10-7 22-12 42-28 54-38-6 16-9 38-9 67 0 3 0 7 0 13 6 0 13 0 19 0 3 0 10 0 16-3 0-3 0-7 0-13 0-26-3-51-6-64 9 10 28 26 54 38 3 4 6 4 10 7 6-7 12-16 16-29-4 0-7-3-10-3-26-16-45-26-61-29 16-3 39-13 61-26 3-3 6-6 10-6z"/>
<glyph unicode="&#57448;" d="M445 96l-192 352-189-352z m-96 32l-221 0 112 205z"/>
<glyph unicode="&#57397;" d="M512 61l0-10c0-9-10-19-19-19l-282 0c-9 0-19 10-19 19l0 10c0 6 0 16 0 22 0 13 96 48 106 48 3 10 16 19 16 19l6 0 3 16c0 0-6 7-9 10-4 3-16 51-16 51 0 0-4 7-7 7-3 3-9 16-6 28 3 7 9 7 9 7 0 0 0 16 0 32 0 19 20 51 58 51 38 0 58-32 58-51 0-16 0-32 0-32 0 0 6 0 9-7 3-9-3-25-6-28-3 0-3-4-3-4 0 0-13-48-16-51-4-3-10-9-10-9l3-16 7 0c0 0 12-13 16-20 9 0 105-35 105-48-3-6-3-16-3-25z m-288 99l-192 0c-19 0-32 13-32 32l0 128c0 19 13 32 32 32l32 0 0 64c0 35 29 64 64 64 35 0 64-29 64-64l0-64 32 0c19 0 32-13 32-32l0-128c0-19-13-32-32-32z m-64 256c0 19-13 32-32 32-19 0-32-13-32-32l0-64 64 0z m-32-128c-19 0-32-13-32-32 0-13 6-22 16-26l0-38c0-10 6-16 16-16 10 0 16 6 16 16l0 38c10 4 16 13 16 26 0 19-13 32-32 32z"/>
<glyph unicode="&#57471;" d="M128 256l192 128 0-256z"/>
<glyph unicode="&#57472;" d="M256 480c-124 0-224-100-224-224 0-124 100-224 224-224 124 0 224 100 224 224 0 124-100 224-224 224z m0-416c-106 0-192 86-192 192 0 106 86 192 192 192 106 0 192-86 192-192 0-106-86-192-192-192z m128 192c0-71-57-128-128-128-71 0-128 57-128 128 0 71 57 128 128 128 71 0 128-57 128-128z"/>
<glyph unicode="&#57473;" d="M0 512l160 0-160-160z"/>
<glyph unicode="&#57355;" d="M368 320c35 0 64-29 64-64 0-35-29-64-64-64l-240 0c-35 0-64 29-64 64 0 35 29 64 64 64l240 0m0 16l-240 0c-45 0-80-35-80-80 0-45 35-80 80-80l240 0c45 0 80 35 80 80 0 45-35 80-80 80z m-120 40c-5 0-8 3-8 8l0 64c0 5 3 8 8 8 5 0 8-3 8-8l0-64c0-5-3-8-8-8z m-147-16c-2 0-5 2-7 5l-27 57c-1 5 0 10 3 12 4 1 8 0 12-4l27-57c1-5 0-8-3-11-2-2-4-2-5-2z m294 0c-1 0-1 0-3 0-3 2-6 6-3 11l27 58c2 3 6 6 11 3 3-2 7-6 3-11l-27-58c-3-1-6-3-8-3z m-147-304c-5 0-8 3-8 8l0 64c0 5 3 8 8 8 5 0 8-3 8-8l0-64c0-5-3-8-8-8z m173 22c-3 0-7 2-8 5l-27 58c-2 5 0 8 3 11 3 2 8 0 11-3l27-58c2-5 0-8-3-11 0-2-2-2-3-2z m-346 0c-1 0-1 0-3 0-3 2-6 7-3 12l27 57c2 3 6 7 11 3 3-1 7-6 3-11l-27-57c-3-2-6-4-8-4z"/>
<glyph unicode="&#57358;" d="M368 320c35 0 64-29 64-64 0-35-29-64-64-64l-240 0c-35 0-64 29-64 64 0 35 29 64 64 64l240 0m0 16l-240 0c-45 0-80-35-80-80 0-45 35-80 80-80l240 0c45 0 80 35 80 80 0 45-35 80-80 80z"/>
<glyph unicode="&#57386;" d="M160 232c-22 0-40 18-40 40 0 22 18 40 40 40 22 0 40-18 40-40 0-22-18-40-40-40z m0 64c-13 0-24-11-24-24 0-13 11-24 24-24 13 0 24 11 24 24 0 13-11 24-24 24z m192-48c0-13-11-24-24-24-13 0-24 11-24 24 0 13 11 24 24 24 13 0 24-11 24-24z m48 64c0-13-11-24-24-24-13 0-24 11-24 24 0 13 11 24 24 24 13 0 24-11 24-24z m-48 64c0-13-11-24-24-24-13 0-24 11-24 24 0 13 11 24 24 24 13 0 24-11 24-24z m-80 16c0-13-11-24-24-24-13 0-24 11-24 24 0 13 11 24 24 24 13 0 24-11 24-24z m-10 56c93 0 170-64 170-141 0-59-46-109-102-109-28 0-37 8-48 16-12 8-21 16-45 16-16 0-29-9-40-17-15-11-27-21-53-21-35 0-64 32-64 70 0 103 82 186 182 186m0 16c-108 0-198-91-198-202 0-48 37-86 82-86 30 0 48 13 62 24 11 8 19 14 30 14 18 0 26-6 36-12 11-10 25-20 57-20 66 0 119 56 119 125-2 87-85 157-188 157z m167-370c-2 2-48 34-93 34-30 0-43-16-46-32l-210 0c-5 0-8-3-8-8 0-5 3-8 8-8l210 0c3-16 16-32 46-32 19 0 30 8 43 16 13 8 24 16 45 16 3 0 6 2 8 5 0 5 0 8-3 9z m-59-17c-10-7-20-13-34-13-21 0-32 8-32 24 0 16 11 24 32 24 24 0 48-11 64-19-13-3-22-10-30-16z"/>
<glyph unicode="&#57395;" d="M256 392c106 0 189-99 216-136-27-37-110-136-216-136-106 0-189 99-216 136 27 37 110 136 216 136m0 16c-122 0-213-123-232-152 19-29 110-152 232-152 122 0 213 123 232 152-19 29-110 152-232 152z m0-264c-62 0-112 50-112 112 0 62 50 112 112 112 62 0 112-50 112-112 0-62-50-112-112-112z m0 208c-53 0-96-43-96-96 0-53 43-96 96-96 53 0 96 43 96 96 0 53-43 96-96 96z m45-62l-11 11-34-34-34 34-11-11 34-34-34-34 11-11 34 34 34-34 11 11-34 34z"/>
<glyph unicode="&#57400;" d="M454 120c-11 0-20 5-28 13l-92 91c-30-11-65-5-86 18-26 25-30 59-14 92l4 10 52-51 35 35-51 51 9 5c34 16 67 10 93-14 22-23 29-56 18-87l91-91c16-16 16-42 0-59-8-8-19-13-31-13z m-115 122l99-100c10-9 26-9 36 0 9 10 9 26 0 36l-100 99 2 5c11 27 6 56-11 75-18 17-40 22-63 16l47-47-58-57-46 46c-8-24-2-45 16-62 17-18 48-23 75-11z m-323 94l32 0 0-32-32 0z m64-16l112 0 0-16-112 0z m-64-112l32 0 0-32-32 0z m64-16l112 0 0-16-112 0z m-64 80l32 0 0-32-32 0z m64-16l112 0 0-16-112 0z"/>
<glyph unicode="&#57413;" d="M336 400l0-160 160 0 0 160z m133-16l-117-117 0 117z m-117-128z m11 0l117 117 0-117z m-235-96l0 16-16 0 0 96 16 0 0 16-48 0 0-16 16 0 0-96-16 0 0-16z m352 48l0-64c0-10-6-16-16-16l-416 0c-10 0-16 6-16 16l0 160c0 10 6 16 16 16l256 0 0 16-256 0c-18 0-32-14-32-32l0-160c0-18 14-32 32-32l416 0c18 0 32 14 32 32l0 64z"/>
<glyph unicode="&#57452;" d="M496 184c0-22-18-40-40-40l-400 0c-22 0-40 18-40 40l0 144c0 22 18 40 40 40l400 0c22 0 40-18 40-40z m-16 144c0 13-11 24-24 24l-400 0c-13 0-24-11-24-24l0-144c0-13 11-24 24-24l400 0c13 0 24 11 24 24z m16-144c0-22-18-40-40-40l-400 0c-22 0-40 18-40 40l0 144c0 22 18 40 40 40l400 0c22 0 40-18 40-40z m-16 144c0 13-11 24-24 24l-400 0c-13 0-24-11-24-24l0-144c0-13 11-24 24-24l400 0c13 0 24 11 24 24z m-274-123l-40 40c5 8 8 17 8 27 0 27-20 48-48 48-27 0-48-21-48-48 0-27 21-48 48-48 12 0 21 3 29 10l40-40z m-110 67c0 18 14 32 32 32 18 0 32-14 32-32 0-18-14-32-32-32-18 0-32 14-32 32z"/>
<glyph unicode="&#57453;" d="M416 426c10 0 16-7 16-16l0-133c0-13-8-34-18-43l-155-154c-3-3-6-5-11-5-5 0-8 2-11 5l-151 150c-6 7-6 16 0 23l154 155c10 10 30 18 43 18l133 0m0 16l-133 0c-17 0-41-10-54-23l-154-155c-13-13-13-34 0-45l151-150c6-7 14-10 22-10 8 0 16 3 22 10l156 153c12 13 22 37 22 55l0 133c0 17-14 32-32 32z m-64-136c-22 0-40 17-40 40 0 22 18 40 40 40 22 0 40-18 40-40 0-21-18-40-40-40z m0 64c-13 0-24-12-24-24 0-13 11-24 24-24 13 0 24 11 24 24 0 14-11 24-24 24z m-94-189c-2 0-5 0-7 1l-64 64c-3 4-3 8 0 12 3 3 8 3 11 0l64-64c4-4 4-8 0-12 0-1-3-1-4-1z m48 48c-2 0-5 0-7 1l-64 64c-3 4-3 8 0 12 3 3 8 3 11 0l64-64c4-4 4-8 0-12 0-1-3-1-4-1z"/>
<glyph unicode="&#57454;" d="M416 448l-320 0c-18 0-32-14-32-32l0-320c0-18 14-32 32-32l320 0c18 0 32 14 32 32l0 320c0 18-14 32-32 32z m16-352c0-10-6-16-16-16l-320 0c-10 0-16 6-16 16l0 256 352 0z m-352 272l0 48c0 10 6 16 16 16l320 0c10 0 16-6 16-16l0-48z"/>
<glyph unicode="&#57458;" d="M416 208l-112 0 0-16 112 0c10 0 16-6 16-16l0-80c0-10-6-16-16-16l-304 0c-10 0-16 6-16 16l0 80c0 10 6 16 16 16l112 0 0 16-112 0c-18 0-32-14-32-32l0-80c0-18 14-32 32-32l304 0c18 0 32 14 32 32l0 80c0 18-14 32-32 32z m-38 126l-114 114-114-114c-3-3-3-8 0-11 4-3 8-3 12 0l94 95 0-274c0-5 3-8 8-8 5 0 8 3 8 8l0 274 94-95c4-3 8-3 12 0 3 3 3 8 0 11z"/>
<glyph unicode="&#57475;" d="M416 310l-37 37 10 10 27-27 27 27 10-10z m48-86c10 0 16-6 16-16l0-64c0-10-6-16-16-16l-416 0c-10 0-16 6-16 16l0 64c0 10 6 16 16 16l416 0m0 16l-416 0c-18 0-32-14-32-32l0-64c0-18 14-32 32-32l416 0c18 0 32 14 32 32l0 64c0 18-14 32-32 32z m0 160l-416 0c-18 0-32-14-32-32l0-64c0-18 14-32 32-32l416 0c18 0 32 14 32 32l0 64c0 18-14 32-32 32z m-416-112c-10 0-16 6-16 16l0 64c0 10 6 16 16 16l288 0 0-96z m432 16c0-10-6-16-16-16l-112 0 0 96 112 0c10 0 16-6 16-16z"/>
<glyph unicode="&#57476;" d="M288 272l0-112 144 0 0 112z m128-96l-112 0 0 80 112 0z m64 224l-448 0c-18 0-32-14-32-32l0-224c0-18 14-32 32-32l448 0c18 0 32 14 32 32l0 224c0 18-14 32-32 32z m16-256c0-10-6-16-16-16l-448 0c-10 0-16 6-16 16l0 160 480 0z m-480 176l0 48c0 10 6 16 16 16l448 0c10 0 16-6 16-16l0-48z m144 32c0-9-7-16-16-16-9 0-16 7-16 16 0 9 7 16 16 16 9 0 16-7 16-16z m-48 0c0-9-7-16-16-16-9 0-16 7-16 16 0 9 7 16 16 16 9 0 16-7 16-16z m-48 0c0-9-7-16-16-16-9 0-16 7-16 16 0 9 7 16 16 16 9 0 16-7 16-16z m168-88c0 5-3 8-8 8l-144 0c-5 0-8-3-8-8 0-5 3-8 8-8l144 0c5 0 8 3 8 8z m0-48c0 5-3 8-8 8l-144 0c-5 0-8-3-8-8 0-5 3-8 8-8l144 0c5 0 8 3 8 8z m0-48c0 5-3 8-8 8l-144 0c-5 0-8-3-8-8 0-5 3-8 8-8l144 0c5 0 8 3 8 8z"/>
<glyph unicode="&#57477;" d="M304 304c10 0 16-6 16-16l0-75c0-13-8-34-18-43l-91-92c-3-3-6-4-11-4-5 0-8 1-11 4l-95 95c-3 3-4 6-4 11 0 5 1 8 4 11l92 91c9 10 30 18 43 18l75 0m0 16l-75 0c-18 0-42-10-55-22l-91-92c-13-12-13-33 0-44l95-95c6-6 14-9 22-9 8 0 16 3 22 9l92 91c12 13 22 37 22 55l0 75c0 18-14 32-32 32z m-32-80c0-9-7-16-16-16-9 0-16 7-16 16 0 9 7 16 16 16 9 0 16-7 16-16z m131-24l-32 0c-5 0-8 3-8 8 0 5 3 8 8 8l32 0c32 0 56 26 56 56 0 30-25 56-56 56-5 0-11-2-17-3l-13-5 3 14c2 7 2 15 2 21 0 56-45 101-101 101-55 0-101-45-101-98l0-12-11 6c-13 5-24 8-35 8-40 0-74-32-74-72 0-16 5-30 14-43 4-3 2-8-1-11-3-4-8-2-11 1-12 16-18 34-18 53 0 48 40 88 90 88 11 0 20-2 32-6 6 57 57 102 116 102 64 0 117-53 117-117 0-5 0-8 0-13 45 7 83-28 83-70-1-40-35-72-75-72z"/>
<glyph unicode="&#57479;" d="M384 160l-256 0c-54 0-96 42-96 96 0 54 42 96 96 96l256 0c54 0 96-42 96-96 0-54-42-96-96-96z m0 160l-256 0c-35 0-64-29-64-64 0-35 29-64 64-64l256 0c35 0 64 29 64 64 0 35-29 64-64 64z"/>
<glyph unicode="&#57482;" d="M480 448l-448 0c-18 0-32-14-32-32l0-320c0-18 14-32 32-32l448 0c18 0 32 14 32 32l0 320c0 18-14 32-32 32z m16-352c0-10-6-16-16-16l-448 0c-10 0-16 6-16 16l0 256 480 0z m-480 272l0 48c0 10 6 16 16 16l448 0c10 0 16-6 16-16l0-48z m144 32c0-9-7-16-16-16-9 0-16 7-16 16 0 9 7 16 16 16 9 0 16-7 16-16z m-48 0c0-9-7-16-16-16-9 0-16 7-16 16 0 9 7 16 16 16 9 0 16-7 16-16z m-48 0c0-9-7-16-16-16-9 0-16 7-16 16 0 9 7 16 16 16 9 0 16-7 16-16z m-16-80l0-208 272 0 0 208z m16-80l96 0 0-48-96 0z m0-112l0 48 96 0 0-48z m240 0l-128 0 0 48 128 0z m0 64l-128 0 0 48 128 0z m0 64l-240 0 0 48 240 0z m48 64l0-144 112 0 0 144z m96-128l-80 0 0 64 80 0z m0 80l-80 0 0 32 80 0z"/>
<glyph unicode="&#57483;" d="M496 56c0-22-18-40-40-40l-400 0c-22 0-40 18-40 40l0 144c0 22 18 40 40 40l400 0c22 0 40-18 40-40z m-16 144c0 13-11 24-24 24l-400 0c-13 0-24-11-24-24l0-144c0-13 11-24 24-24l400 0c13 0 24 11 24 24z m-352-24l0 16-48 0 0-16 16 0 0-96-16 0 0-16 48 0 0 16-16 0 0 96z m301 202c-3 3-8 3-11 0l-34-42 0 128c0 18-14 32-32 32l-96 0c-5 0-8-3-8-8 0-5 3-8 8-8l96 0c10 0 16-6 16-16l0-130-34 39c-3 3-8 3-11 0-3-3-3-8 0-11l55-61 54 64c2 5 0 9-3 13z m-269-90l96 0c5 0 8 3 8 8 0 5-3 8-8 8l-96 0c-10 0-16 6-16 16l0 128 34-38c3-4 8-4 11 0 3 3 3 8 0 11l-53 59-54-64c-4-3-2-8 1-11 3-3 8-3 11 0l34 41 0-126c0-18 14-32 32-32z"/>
<glyph unicode="&#57484;" d="M112 496l0-208 288 0 0 208z m112-192l-96 0 0 48 96 0z m0 64l-96 0 0 48 96 0z m80-64l-64 0 0 48 64 0z m0 64l-64 0 0 48 64 0z m80-64l-64 0 0 48 64 0z m0 64l-64 0 0 48 64 0z m0 64l-256 0 0 48 256 0z m112-376c0-22-18-40-40-40l-400 0c-22 0-40 18-40 40l0 144c0 22 18 40 40 40l400 0c22 0 40-18 40-40z m-16 144c0 13-11 24-24 24l-400 0c-13 0-24-11-24-24l0-144c0-13 11-24 24-24l400 0c13 0 24 11 24 24z m-352-24l0 16-48 0 0-16 16 0 0-96-16 0 0-16 48 0 0 16-16 0 0 96z"/>
<glyph unicode="&#57485;" d="M323 352l35 43c4 3 2 8-1 11-3 4-8 2-11-1l-34-40-34 40c-3 3-8 3-11 1-3-3-3-8-1-11l35-43-35-43c-4-3-2-8 1-11 2-2 3-2 5-2 2 0 5 2 6 3l34 40 34-40c1-1 3-3 6-3 2 0 3 0 5 2 3 3 3 8 1 11z m-83 48l-26 0 18 58c0 6 10 6 13 6l43 0c5 0 8 3 8 8 0 5-3 8-8 8l-43 0c-15 0-26-6-29-18l-19-62-37 0c-5 0-8-3-8-8 0-5 3-8 8-8l32 0-24-83c-2-5 2-8 5-10 0 0 1 0 1 0 4 0 7 2 8 7l28 86 30 0c5 0 8 3 8 8 0 5-3 8-8 8z m256-344c0-22-18-40-40-40l-400 0c-22 0-40 18-40 40l0 144c0 22 18 40 40 40l400 0c22 0 40-18 40-40z m-16 144c0 13-11 24-24 24l-400 0c-13 0-24-11-24-24l0-144c0-13 11-24 24-24l400 0c13 0 24 11 24 24z m-352-24l0 16-48 0 0-16 16 0 0-96-16 0 0-16 48 0 0 16-16 0 0 96z"/>
<glyph unicode="&#57488;" d="M378 374l-52 52c-12 12-36 22-54 22l-128 0c-18 0-32-14-32-32l0-320c0-18 14-32 32-32l224 0c18 0 32 14 32 32l0 224c0 18-10 42-22 54z m-12-11c7-6 12-17 15-27l-77 0c-10 0-16 6-16 16l0 77c11-3 21-10 27-15z m18-267c0-10-6-16-16-16l-224 0c-10 0-16 6-16 16l0 320c0 10 6 16 16 16l128 0 0-80c0-18 14-32 32-32l80 0z"/>
<glyph unicode="&#57489;" d="M400 208l-48 0-16-16 64 0c10 0 16-6 16-16l0-80c0-10-6-16-16-16l-304 0c-10 0-16 6-16 16l0 80c0 10 6 16 16 16l64 0-16 16-48 0c-18 0-32-14-32-32l0-80c0-18 14-32 32-32l304 0c18 0 32 14 32 32l0 80c0 18-14 32-32 32z m-266 90l114-114 114 114c3 3 3 8 0 11-4 3-8 3-12 0l-94-95 0 242c0 5-3 8-8 8-5 0-8-3-8-8l0-242-94 95c-4 3-8 3-12 0-3-3-3-8 0-11z"/>
<glyph unicode="&#57490;" d="M240 432c115 0 208-72 208-160 0-27-10-54-27-78l-5-7 3-8 32-83-88 42-6 3-7-3c-33-16-70-24-108-24-117-2-210 70-210 158 0 88 93 160 208 160m0 16c-123 0-224-78-224-176 0-98 101-176 224-176 42 0 82 10 115 26l125-58-46 120c19 26 30 56 30 88 0 98-101 176-224 176z m32-176c0-18-14-32-32-32-18 0-32 14-32 32 0 18 14 32 32 32 18 0 32-14 32-32z m-112 0c0-18-14-32-32-32-18 0-32 14-32 32 0 18 14 32 32 32 18 0 32-14 32-32z m224 0c0-18-14-32-32-32-18 0-32 14-32 32 0 18 14 32 32 32 18 0 32-14 32-32z"/>
<glyph unicode="&#57491;" d="M416 310l-37 37 10 10 27-27 27 27 10-10z m48-86c10 0 16-6 16-16l0-64c0-10-6-16-16-16l-416 0c-10 0-16 6-16 16l0 64c0 10 6 16 16 16l416 0m0 16l-416 0c-18 0-32-14-32-32l0-64c0-18 14-32 32-32l416 0c18 0 32 14 32 32l0 64c0 18-14 32-32 32z m0 160l-416 0c-18 0-32-14-32-32l0-64c0-18 14-32 32-32l416 0c18 0 32 14 32 32l0 64c0 18-14 32-32 32z m-416-112c-10 0-16 6-16 16l0 64c0 10 6 16 16 16l288 0 0-96z m432 16c0-10-6-16-16-16l-112 0 0 96 112 0c10 0 16-6 16-16z"/>
<glyph unicode="&#57492;" d="M496 56c0-22-18-40-40-40l-400 0c-22 0-40 18-40 40l0 144c0 22 18 40 40 40l400 0c22 0 40-18 40-40z m-16 144c0 13-11 24-24 24l-400 0c-13 0-24-11-24-24l0-144c0-13 11-24 24-24l400 0c13 0 24 11 24 24z m-352-24l0 16-48 0 0-16 16 0 0-96-16 0 0-16 48 0 0 16-16 0 0 96z m16 144l-64 0 0 176 304 0 0-96-16 0 0 80-272 0 0-144 48 0z m96-16l-80 0 0 80 80 0z m-64 16l48 0 0 48-48 0z m160-16l-80 0 0 80 80 0z m-64 16l48 0 0 48-48 0z m160-16l-80 0 0 80 80 0z m-64 16l48 0 0 48-48 0z"/>
<glyph unicode="&#57493;" d="M298 310l-52 52c-12 12-36 22-54 22l-96 0c-18 0-32-14-32-32l0-256c0-18 14-32 32-32l192 0c18 0 32 14 32 32l0 160c0 18-10 42-22 54z m-12-11c7-6 12-17 15-27l-77 0c-10 0-16 6-16 16l0 77c11-3 21-10 27-15z m18-203c0-10-6-16-16-16l-192 0c-10 0-16 6-16 16l0 256c0 10 6 16 16 16l96 0 0-80c0-18 14-32 32-32l80 0z m122 278l-52 52c-12 12-36 22-54 22l-96 0c-18 0-32-14-32-32l0-16c5 0 11 0 16-2l0 18c0 10 6 16 16 16l96 0 0-80c0-18 14-32 32-32l80 0 0-160c0-10-6-16-16-16l-80 0 0-16 80 0c18 0 32 14 32 32l0 160c0 18-10 42-22 54z m-74-38c-10 0-16 6-16 16l0 77c11-3 21-10 27-15l51-51c7-6 12-17 15-27z"/>
<glyph unicode="&#57494;" d="M456 304c-29 0-51-21-54-48l-58 0c-5 45-42 80-88 80-46 0-83-35-88-80l-58 0c-3 27-27 48-54 48-30 0-56-26-56-56 0-30 26-56 56-56 29 0 51 21 54 48l58 0c5-45 42-80 88-80 46 0 83 35 88 80l58 0c3-27 27-48 54-48 30 0 56 26 56 56 0 30-26 56-56 56z m-400-96c-22 0-40 18-40 40 0 22 18 40 40 40 22 0 40-18 40-40 0-22-18-40-40-40z m200-32c-40 0-72 32-72 72 0 40 32 72 72 72 40 0 72-32 72-72 0-40-32-72-72-72z m200 32c-22 0-40 18-40 40 0 22 18 40 40 40 22 0 40-18 40-40 0-22-18-40-40-40z m-160 40c0-22-18-40-40-40-22 0-40 18-40 40 0 22 18 40 40 40 22 0 40-18 40-40z"/>
<glyph unicode="&#57499;" d="M496 56c0-22-18-40-40-40l-400 0c-22 0-40 18-40 40l0 144c0 22 18 40 40 40l400 0c22 0 40-18 40-40z m-16 144c0 13-11 24-24 24l-400 0c-13 0-24-11-24-24l0-144c0-13 11-24 24-24l400 0c13 0 24 11 24 24z m-352-24l0 16-48 0 0-16 16 0 0-96-16 0 0-16 48 0 0 16-16 0 0 96z m168 304c30 0 56-26 56-56 0-2 0-3 0-5l0-1-3-21 21 3c1 0 4 0 6 0 22 0 40-18 40-40 0-22-18-40-40-40l-248 0c-18 0-32 14-32 32 0 18 14 32 32 32 3 0 6 0 11-2l19-8 2 21c2 21 19 37 40 37 6 0 13-2 19-5l18-9 5 20c6 24 28 42 54 42m0 16c-34 0-62-24-70-54-8 4-16 6-26 6-29 0-53-22-56-51-5 1-10 3-16 3-27 0-48-21-48-48 0-27 21-48 48-48l248 0c30 0 56 26 56 56 0 30-26 56-56 56-3 0-6 0-10-2 2 4 2 7 2 10 0 40-32 72-72 72z"/>
<glyph unicode="&#57501;" d="M496 56c0-22-18-40-40-40l-400 0c-22 0-40 18-40 40l0 144c0 22 18 40 40 40l400 0c22 0 40-18 40-40z m-16 144c0 13-11 24-24 24l-400 0c-13 0-24-11-24-24l0-144c0-13 11-24 24-24l400 0c13 0 24 11 24 24z m-352-24l0 16-48 0 0-16 16 0 0-96-16 0 0-16 48 0 0 16-16 0 0 96z m14 266c-6 3-14 6-24 6-4 0-8 0-12-2-4 0-7-1-10-3-3-3-6-5-8-8-2-3-3-8-3-13 0-4 1-8 3-11 5-1 8-3 11-5 5-1 10-3 15-4 6-2 12-4 17-5 7-2 11-3 18-5 5-2 11-5 14-8 5-3 8-6 11-11 4-5 4-11 4-18 0-8-2-14-5-19-3-5-8-10-13-13-5-3-11-6-18-8-6-1-12-1-19-1-8 0-16 1-22 3-8 1-13 5-19 9-5 5-10 10-13 16-5 5-7 13-7 21l18 0c0-6 2-11 3-16 2-5 5-8 10-11 3-3 8-5 13-6 4-2 9-2 16-2 4 0 8 0 12 2 5 1 8 1 12 4 3 2 6 5 8 8 1 4 3 8 3 13 0 5-2 10-3 13-2 3-5 5-10 6-5 4-10 5-14 5-7 2-12 3-18 5-5 0-11 2-16 3-6 3-11 5-16 8-3 2-6 7-10 10-3 5-3 9-3 16 0 8 2 13 5 19 3 5 6 10 11 13 5 3 11 6 16 8 7 1 13 3 19 3 8 0 15-2 21-3 7-2 11-5 16-8 5-3 8-8 11-15 4-6 5-12 5-20l-17 0c-2 11-5 19-12 24z m154-120c-10-7-21-8-35-8-11 0-21 1-31 6-8 5-16 10-22 16-6 6-10 14-13 24-3 10-5 19-5 29 0 9 2 19 5 29 3 9 8 17 13 24 6 6 13 12 22 16 10 4 21 6 32 6 12 0 21-2 31-6 8-5 16-10 22-16 7-7 10-15 13-24 3-10 5-20 5-29 0-11-2-21-5-32-3-10-10-19-16-26l19-14-13-13z m0 20c6 7 10 13 13 21 3 8 5 16 5 26 0 8-2 14-4 21-1 6-4 12-9 19-5 6-10 9-16 14-7 3-15 5-23 5-8 0-16-2-22-5-6-3-11-8-16-14-5-7-6-13-10-19-1-7-3-15-3-21 0-8 2-15 3-21 2-6 5-13 10-19 5-7 10-10 16-15 6-3 14-4 22-4 7 0 13 1 21 4l-16 13 10 11z m78 119l0-128 77 0 0-16-96 0 0 144z"/>
<glyph unicode="&#57502;" d="M410 374l-52 52c-12 12-36 22-54 22l-192 0c-18 0-32-14-32-32l0-320c0-18 14-32 32-32l288 0c18 0 32 14 32 32l0 224c0 18-10 42-22 54z m-12-11c7-6 12-17 15-27l-77 0c-10 0-16 6-16 16l0 77c11-3 21-10 27-15z m18-267c0-10-6-16-16-16l-288 0c-10 0-16 6-16 16l0 320c0 10 6 16 16 16l192 0 0-80c0-18 14-32 32-32l80 0z m-256 192l80 0 0-16-80 0z m112 0l80 0 0-16-80 0z m-112-48l80 0 0-16-80 0z m112 0l80 0 0-16-80 0z m-112-48l80 0 0-16-80 0z m112 0l80 0 0-16-80 0z m-112-48l80 0 0-16-80 0z m112 0l80 0 0-16-80 0z"/>
<glyph unicode="&#57505;" d="M296 464c30 0 56-26 56-56 0-2 0-3 0-5l0-1-3-21 21 3c1 0 4 0 6 0 22 0 40-18 40-40 0-22-18-40-40-40l-248 0c-18 0-32 14-32 32 0 18 14 32 32 32 3 0 6 0 11-2l19-8 2 21c2 21 19 37 40 37 6 0 13-2 19-5l18-9 5 20c6 24 28 42 54 42m0 16c-34 0-62-24-70-54-8 4-16 6-26 6-29 0-53-22-56-51-5 1-10 3-16 3-27 0-48-21-48-48 0-27 21-48 48-48l248 0c30 0 56 26 56 56 0 30-26 56-56 56-3 0-6 0-10-2 2 4 2 7 2 10 0 40-32 72-72 72z m-216-240l0-208 352 0 0 208z m176-192l-160 0 0 48 160 0z m0 64l-160 0 0 48 160 0z m80-64l-64 0 0 48 64 0z m0 64l-64 0 0 48 64 0z m80-64l-64 0 0 48 64 0z m0 64l-64 0 0 48 64 0z m0 64l-320 0 0 48 320 0z"/>
<glyph unicode="&#57506;" d="M288 256l93-93c9-9 9-22 0-32-10-9-23-9-32 0l-93 93-93-93c-9-9-22-9-32 0-9 10-9 23 0 32l93 93-90 93c-9 9-9 22 0 32 10 9 23 9 32 0l90-93 93 93c9 9 22 9 32 0 9-10 9-23 0-32z"/>
<glyph unicode="&#57498;" d="M432 384l0-192-352 0 0 192 352 0m16 16l-384 0 0-224 384 0z m16 48l-416 0c-18 0-32-14-32-32l0-256c0-18 14-32 32-32l149 0-23-48-30 0c-5 0-8-3-8-8 0-5 3-8 8-8l224 0c5 0 8 3 8 8 0 5-3 8-8 8l-34 0-22 48 152 0c18 0 32 14 32 34l0 254c0 18-14 32-32 32z m-147-368l-125 0 22 48 80 0z m163 82c0-10-8-18-16-18l-416 0c-10 0-16 8-16 18l0 254c0 10 8 16 16 16l416 0c10 0 16-6 16-16z"/>
<glyph unicode="&#57512;" d="M349 19l-77 75c-3 4-3 8 0 12 3 3 8 3 11 0l61-61 86 150c2 3 7 5 12 3 3-1 4-6 3-11z m9 189c0 11-9 24-20 29l-63 21c-5 1-11 9-13 14l-4 32c22 18 35 46 35 80 0 53-35 96-80 96-45 0-80-43-80-96 0-34 14-62 35-80l-5-30c-1-7-6-13-13-15l-62-22c-11-3-21-18-21-29l-3-50 16-1 5 51c0 5 5 13 11 14l62 21c12 3 21 16 23 27l5 24c9-4 19-6 28-6 10 0 21 3 29 6l5-24c2-11 13-24 22-27l63-22c5-2 11-10 11-15l3-49 16 1z m-209 176c0 45 29 82 65 82 37 0 66-37 66-82 0-45-29-82-66-82-36 0-65 37-65 82z"/>
<glyph unicode="&#57514;" d="M480 448l-448 0c-18 0-32-14-32-32l0-320c0-18 14-32 32-32l448 0c18 0 32 14 32 32l0 320c0 18-14 32-32 32z m-288-16l144 0 0-80-144 0z m304-336c0-10-6-16-16-16l-448 0c-10 0-16 6-16 16l0 320c0 10 6 16 16 16l144 0 0-96 320 0z m0 256l-144 0 0 80 128 0c10 0 16-6 16-16z"/>
<glyph unicode="&#57515;" d="M336 288l16 0 0-16-16 0z m128-224l16 0 0-16-16 0z m-256 0l16 0 0-16-16 0z m192 224l16 0 0-16-16 0z m-32 0l16 0 0-16-16 0z m64 0l16 0 0-16-16 0z m32 0l16 0 0-16-16 0z m0-32l16 0 0-16-16 0z m0-32l16 0 0-16-16 0z m0-32l16 0 0-16-16 0z m0-32l16 0 0-16-16 0z m0-32l16 0 0-16-16 0z m0-32l16 0 0-16-16 0z m-32-32l16 0 0-16-16 0z m-32 0l16 0 0-16-16 0z m-32 0l16 0 0-16-16 0z m-32 0l16 0 0-16-16 0z m-32 0l16 0 0-16-16 0z m-32 0l16 0 0-16-16 0z m-32 0l16 0 0-16-16 0z m-32 32l16 0 0-16-16 0z m0 32l16 0 0-16-16 0z m0 32l16 0 0-16-16 0z m0 32l16 0 0-16-16 0z m64 32l-224 0 0 224 256 0 0-192 16-16 0 224-288 0 0-256 256 0z m120 8c-5 0-8-3-8-8l0-69-186 187c-3 4-8 4-11 0-3-3-3-8 0-11l186-187-69 0c-5 0-8-3-8-8 0-5 3-8 8-8l96 0 0 96c0 5-3 8-8 8z"/>
<glyph unicode="&#57516;" d="M382 304l-14 0 0 32c0 61-51 112-112 112-61 0-112-46-112-107l0-37-14 0c-20 0-34-14-34-34l0-172c0-20 14-34 34-34l252 0c18 0 34 14 34 34l0 172c0 20-14 34-34 34z m-222 37c0 49 43 91 96 91 53 0 96-43 96-96l0-32-32 0 0 34c0 35-29 64-64 64-35 0-64-28-64-61l0-37-32 0z m144-37l-96 0 0 37c0 25 21 45 48 45 26 0 48-23 48-48z m96-206c0-10-8-18-18-18l-252 0c-10 0-18 8-18 18l0 172c0 10 8 18 18 18l254 0c10 0 16-8 16-18z m-208 142l128 0 0-16-128 0z m0-48l128 0 0-16-128 0z m0-48l128 0 0-16-128 0z"/>
<glyph unicode="&#57517;" d="M208 384l96 0 0-16-96 0z m0-48l96 0 0-16-96 0z m0-48l96 0 0-16-96 0z m208-80c10 0 16-6 16-16l0-96c0-10-6-16-16-16l-320 0c-10 0-16 6-16 16l0 96c0 10 6 16 16 16l320 0m0 16l-320 0c-18 0-32-14-32-32l0-96c0-18 14-32 32-32l320 0c18 0 32 14 32 32l0 96c0 18-14 32-32 32z m-48-80l32 0 0-32-32 0z m-64 0l32 0 0-32-32 0z m-144 96l0 176c0 10 6 16 16 16l160 0c10 0 16-6 16-16l0-176 16 0 0 176c0 18-14 32-32 32l-160 0c-18 0-32-14-32-32l0-176z"/>
<glyph unicode="&#57518;" d="M240 448c-24 0-72 0-96 0-70 0-128-58-128-128 0-66 50-118 112-126l0 16c-54 8-96 54-96 110 0 62 50 112 112 112l96 0c62 0 112-50 112-112 0-62-50-112-112-112l-64 0 0-16c22 0 50 0 64 0 70 0 128 58 128 128 0 70-58 128-128 128z m144-130l0-16c54-8 96-54 96-110 0-62-50-112-112-112l-96 0c-62 0-112 50-112 112 0 62 50 112 112 112l64 0 0 16c-22 0-50 0-64 0-70 0-128-58-128-128 0-70 58-128 128-128 24 0 72 0 96 0 70 0 128 58 128 128 0 66-50 118-112 126z"/>
<glyph unicode="&#57519;" d="M256 464c115 0 208-93 208-208 0-115-93-208-208-208-115 0-208 93-208 208 0 115 93 208 208 208m0 16c-123 0-224-101-224-224 0-123 101-224 224-224 123 0 224 101 224 224 0 123-101 224-224 224z m0-64c88 0 160-72 160-160 0-88-72-160-160-160-88 0-160 72-160 160 0 88 72 160 160 160m0 16c-98 0-176-78-176-176 0-98 78-176 176-176 98 0 176 78 176 176 0 98-78 176-176 176z m19-64c0-11-8-19-19-19-11 0-19 8-19 19 0 11 8 19 19 19 11 0 19-8 19-19z m0-224c0-11-8-19-19-19-11 0-19 8-19 19 0 11 8 19 19 19 11 0 19-8 19-19z m112 112c0-11-8-19-19-19-11 0-19 8-19 19 0 11 8 19 19 19 11 0 19-8 19-19z m-224 0c0-11-8-19-19-19-11 0-19 8-19 19 0 11 8 19 19 19 11 0 19-8 19-19z m178 88l-104-58c-5-3-10-8-13-12l-58-104c-3-5-1-7 4-4l104 58c4 3 9 8 12 13l58 104c3 5 2 6-3 3z m-85-107c-10 0-19 8-19 19 0 10 8 19 19 19 11 0 19-8 19-19 0-10-9-19-19-19z"/>
<glyph unicode="&#57520;" d="M368 358l-37 37 10 10 27-27 27 27 10-10z m48 90l-320 0c-18 0-32-14-32-32l0-320c0-18 14-32 32-32l320 0c18 0 32 14 32 32l0 320c0 18-14 32-32 32z m-336-32c0 10 6 16 16 16l192 0 0-96-208 0z m352-320c0-10-6-16-16-16l-320 0c-10 0-16 6-16 16l0 64 352 0z m0 80l-352 0 0 64 352 0z m0 80l-352 0 0 64 352 0z m-128 80l0 96 112 0c10 0 16-6 16-16l0-80z"/>
<glyph unicode="&#57521;" d="M256 320c35 0 64-29 64-64 0-35-29-64-64-64-35 0-64 29-64 64 0 35 29 64 64 64m0 16c-45 0-80-35-80-80 0-45 35-80 80-80 45 0 80 35 80 80 0 45-35 80-80 80z m0 128c10 0 19 0 29-2 6-14 11-32 16-52l1-8 8-4c4-1 7-1 8-3l8-3 8 5c18 11 34 21 48 25 16-11 29-25 40-40-6-14-14-30-25-48l-5-8 3-8c2-3 2-6 3-8l4-8 8-1c20-5 38-10 52-16 2-10 2-19 2-29 0-10 0-19-2-29-14-6-32-11-52-16l-8-1-4-8c-1-4-1-7-3-8l-3-8 5-8c11-18 21-34 25-48-11-16-25-29-40-40-14 6-30 14-48 25l-8 5-8-3c-3-2-6-2-8-3l-8-4-1-8c-5-20-10-38-16-52-10-2-19-2-29-2-10 0-19 0-29 2-6 14-11 32-16 52l-1 8-8 4c-4 1-7 1-8 3l-8 3-8-5c-18-11-34-21-48-25-16 11-29 25-40 40 6 14 14 30 25 48l5 8-3 8c-2 3-2 6-3 8l-4 8-8 1c-20 5-38 10-52 16-2 10-2 19-2 29 0 10 0 19 2 29 14 6 32 11 52 16l8 1 4 8c1 4 1 7 3 8l3 8-5 8c-11 18-21 34-25 48 11 16 25 29 40 40 14-6 30-14 48-25l8-5 8 3c3 2 6 2 8 3l8 4 1 8c5 20 10 38 16 52 10 2 19 2 29 2m0 16c-14 0-27-2-40-3-8-18-14-39-19-64-3-2-7-3-10-3-21 12-41 24-59 30-21-16-40-35-56-56 6-18 18-37 30-59-1-3-3-7-3-10-25-5-46-13-64-19-1-13-3-26-3-40 0-14 2-27 3-40 18-8 39-14 64-19 2-3 3-7 3-10-14-21-24-41-30-59 16-22 35-42 56-56 18 6 37 18 59 30 3-1 7-3 10-3 5-25 13-46 19-64 13-1 26-3 40-3 14 0 27 2 40 3 8 18 14 39 19 64 3 2 7 3 10 3 21-14 41-24 59-30 22 16 42 35 56 56-6 18-18 37-30 59 1 3 3 7 3 10 25 5 46 13 64 19 1 13 3 26 3 40 0 14-2 27-3 40-18 8-39 14-64 19-2 3-3 7-3 10 14 21 24 41 30 59-16 22-35 42-56 56-18-6-37-18-59-30-3 1-7 3-10 3-5 25-13 46-19 64-13 1-26 3-40 3z"/>
<glyph unicode="&#57522;" d="M448 432c10 0 16-6 16-16l0-224c0-10-6-16-16-16l-160 0c-10 0-16 6-16 16l0 224c0 10 6 16 16 16l160 0m0 16l-160 0c-18 0-32-14-32-32l0-224c0-18 14-32 32-32l160 0c18 0 32 14 32 32l0 224c0 18-14 32-32 32z m-128-64l96 0 0-16-96 0z m0-48l96 0 0-16-96 0z m0-48l96 0 0-16-96 0z m0-48l96 0 0-16-96 0z m48-96l0-48c0-10-6-16-16-16l-288 0c-10 0-16 6-16 16l0 192c0 10 6 16 16 16l64 0c10 0 22-10 24-19l0-2c6-24 30-43 56-43l32 0 0 16-32 0c-18 0-35 14-40 30l0 2c-5 18-22 32-40 32l-64 0c-18 0-32-14-32-32l0-192c0-18 14-32 32-32l288 0c18 0 32 14 32 32l0 48z"/>
<glyph unicode="&#57525;" d="M472 158l-150 143-2-207 53 69 41-99 15 6-42 98z m-272 290c-75 0-136-21-136-48l0-224c0-27 61-48 136-48 32 0 62 5 88 13l0 16c-22-7-51-11-88-11-78-2-120 20-120 30l0 48c27-16 75-24 120-24 32 0 62 5 88 13l0 16c-22-7-51-11-88-11-61 0-104 12-120 27l0 59c27-16 75-24 120-24 32 0 62 5 88 13l0 16c-22-7-51-11-88-11-61 0-104 12-120 27l0 53c22-16 69-26 120-26 51 0 98 10 120 26l0-42 16 0 0 64c0 27-61 48-136 48z m0-80c-78 0-120 22-120 32 0 10 42 32 120 32 78 0 120-22 120-32 0-10-42-32-120-32z"/>
<glyph unicode="&#57526;" d="M256 464c115 0 208-93 208-208 0-115-93-208-208-208-115 0-208 93-208 208 0 115 93 208 208 208m0 16c-123 0-224-101-224-224 0-123 101-224 224-224 123 0 224 101 224 224 0 123-101 224-224 224z m0-64c88 0 160-72 160-160 0-88-72-160-160-160-88 0-160 72-160 160 0 88 72 160 160 160m0 16c-98 0-176-78-176-176 0-98 78-176 176-176 98 0 176 78 176 176 0 98-78 176-176 176z m19-64c0-11-8-19-19-19-11 0-19 8-19 19 0 11 8 19 19 19 11 0 19-8 19-19z m112-112c0-11-8-19-19-19-11 0-19 8-19 19 0 11 8 19 19 19 11 0 19-8 19-19z m-224 0c0-11-8-19-19-19-11 0-19 8-19 19 0 11 8 19 19 19 11 0 19-8 19-19z m34 78c0-10-9-19-19-19-11 0-20 9-20 19 0 11 9 20 20 20 10 0 19-9 19-20z m157 0c0-10-9-19-20-19-10 0-19 9-19 19 0 11 9 20 19 20 11 0 20-9 20-20z m-36-24c-3 4-8 2-11-1l-40-58c-3 2-6 2-9 2-18 0-32-15-32-32 0-18 14-32 32-32 17 0 32 14 32 32 0 8-4 16-8 22l40 56c0 3 0 8-4 11z m-94-150l64 0 0-32-64 0z"/>
<glyph unicode="&#57527;" d="M288 128l16 0 0-32-16 0z m-71-3l-11 12 22 22 12-11z m-41 99l32 0 0-16-32 0z m29 71l12 12 22-23-11-11z m170 12l12-12-23-22-11 11z m-79 61c83 0 152-69 152-152 0-83-69-152-152-152-83 0-152 69-152 152 0 83 69 152 152 152m0 16c-93 0-168-75-168-168 0-93 75-168 168-168 93 0 168 75 168 168 0 93-75 168-168 168z m90-247l-11-12-23 23 12 11z m30 87l-112 0 0 112c0 5-3 8-8 8-5 0-8-3-8-8l0-128 128 0c5 0 8 3 8 8 0 5-3 8-8 8z m-122 283c-92-3-179-49-230-126l0 67c0 5-3 8-8 8-5 0-8-3-8-8l0-96 96 0c5 0 8 3 8 8 0 5-3 8-8 8l-70 0c48 74 129 122 219 123 5 0 8 3 8 8 0 5-3 8-7 8z"/>
<glyph unicode="&#57528;" d="M264 72c-101 0-184 83-184 184 0 101 83 184 184 184 101 0 184-83 184-184 0-101-83-184-184-184m0-16c110 0 200 90 200 200 0 110-90 200-200 200-110 0-200-90-200-200 0-110 90-200 200-200z m-86 245c-4-3-4-8 0-11 3-4 8-4 11 0l67 65 0-221c0-4 3-8 8-8 5 0 8 4 8 8l0 221 66-65c3-4 8-4 11 0 1 1 1 3 1 6 0 3 0 5-1 6l-87 87z"/>
<glyph unicode="&#57529;" d="M163 179c-3-3-3-8 0-11 3-3 8-3 11 0l66 66 0-221c0-5 3-8 8-8 5 0 8 3 8 8l0 222 67-65c3-4 8-4 11 0 2 1 4 3 4 6 0 3 0 5-2 6l-86 87z m215 195l-52 52c-12 12-36 22-54 22l-144 0c-18 0-32-14-32-32l0-320c0-18 14-32 32-32l96 0 0 16-96 0c-10 0-16 6-16 16l0 320c0 10 6 16 16 16l144 0 0-80c0-18 14-32 32-32l80 0 0-224c0-10-6-16-16-16l-96 0 0-16 96 0c18 0 32 14 32 32l0 224c0 18-10 42-22 54z m-74-38c-10 0-16 6-16 16l0 77c11-3 21-10 27-15l51-51c7-6 12-17 15-27z"/>
<glyph unicode="&#57530;" d="M264 440c101 0 184-83 184-184 0-101-83-184-184-184-101 0-184 83-184 184 0 101 83 184 184 184m0 16c-110 0-200-90-200-200 0-110 90-200 200-200 110 0 200 90 200 200 0 110-90 200-200 200z m86-245c4 3 4 8 0 11-3 4-8 4-11 0l-67-65 0 221c0 4-3 8-8 8-5 0-8-4-8-8l0-221-66 67c-3 3-8 3-11 0-3-2-3-5-3-6 0-2 0-5 2-7l86-86z"/>
<glyph unicode="&#57531;" d="M458 406l-52 52c-12 12-36 22-54 22l-128 0c-18 0-32-14-32-32l0-64c3 0 5 0 8 0 3 0 5 0 8 0l0 64c0 10 6 16 16 16l128 0 0-80c0-18 14-32 32-32l80 0 0-208c0-10-6-16-16-16l-78 0c-2-5-5-11-8-16l86 0c18 0 32 14 32 32l0 208c0 18-10 42-22 54z m-74-38c-10 0-16 6-16 16l0 77c11-3 21-10 27-15l51-51c7-6 12-17 15-27z m-184-16c83 0 152-69 152-152 0-83-69-152-152-152-83 0-152 69-152 152 0 83 69 152 152 152m0 16c-93 0-168-75-168-168 0-93 75-168 168-168 93 0 168 75 168 168 0 93-75 168-168 168z m-8-256l16 0 0-32-16 0z m-71-3l-11 12 22 22 12-11z m-41 99l32 0 0-16-32 0z m29 71l12 12 22-23-11-11z m170 12l12-12-23-22-11 11z m11-170l-11-12-23 23 12 11z m30 87l-112 0 0 112c0 5-3 8-8 8-5 0-8-3-8-8l0-128 128 0c5 0 8 3 8 8 0 5-3 8-8 8z"/>
<glyph unicode="&#57503;" d="M168 16c-22 0-40 18-40 40l0 400c0 22 18 40 40 40l176 0c22 0 40-18 40-40l0-400c0-22-18-40-40-40z m176 16c13 0 24 11 24 24l0 400c0 13-11 24-24 24l-176 0c-13 0-24-11-24-24l0-400c0-13 11-24 24-24z m-8 384l0-304-160 0 0 304 160 0m0 16l-160 0c-10 0-16-8-16-16l0-304c0-8 6-16 16-16l160 0c10 0 16 8 16 16l0 304c0 8-6 16-16 16z m-64-368c0-9-7-16-16-16-9 0-16 7-16 16 0 9 7 16 16 16 9 0 16-7 16-16z m0 384l-32 0c-5 0-8 3-8 8 0 5 3 8 8 8l32 0c5 0 8-3 8-8 0-5-3-8-8-8z"/>
<glyph unicode="&#57533;" d="M320 272c0-11-9-21-21-21-11 0-21 10-21 21 0 12 10 21 21 21 12 0 21-9 21-21z m32-77c0-13-11-24-24-24-13 0-24 11-24 24 0 13 11 24 24 24 13 0 24-11 24-24z m-118 77c0-11-10-21-21-21-12 0-21 10-21 21 0 12 9 21 21 21 11 0 21-9 21-21z m-26-77c0-13-11-24-24-24-13 0-24 11-24 24 0 13 11 24 24 24 13 0 24-11 24-24z m294-8l-40 48c-8 10-24 16-36 13l-30-5c-4 19-12 37-23 52 12 10 21 17 21 17 4 5 14 6 20 3l61-33c3-2 8-2 11 3 2 3 0 8-3 11l-61 34c-11 6-28 4-38-4l-22-17c-9 9-19 17-30 24 3 7 4 14 4 21 0 27-20 51-49 61 2 4 4 7 7 11 12 11 28 19 47 19 5 0 8 3 8 8 0 5-3 8-8 8-24 0-45-8-59-24-6-5-9-11-11-17-5 0-10 1-15 1-6 0-11-1-17-2-2 6-5 11-10 16-15 15-35 24-59 24-5 0-8-3-8-8 0-5 4-8 9-8 19 0 37-6 47-19 2-3 4-6 6-9-29-10-48-34-48-61 0-7 1-14 4-21-11-6-21-15-30-24l-22 17c-10 8-27 10-38 4l-61-34c-3-2-5-6-3-11 1-5 6-7 11-3l61 33c6 3 16 2 20-1 0 0 9-8 22-17-11-16-19-33-24-52l-28 5c-13 1-29-4-37-13l-40-48c-3-3-1-8 2-11 1-2 3-2 5-2 1 0 4 2 6 3l40 48c3 3 13 7 21 7l28-5c0-6-1-12-1-18 0-15 2-30 7-44l-20-7c-11-5-24-16-29-27l-27-69c-1-5 0-8 5-10 2 0 2 0 3 0 3 0 7 2 8 5l27 69c4 6 12 16 20 18l19 6c22-50 72-85 131-85 59 0 109 35 131 85l19-6c7-4 16-12 20-18l27-70c1-4 5-5 8-5 1 0 1 0 3 0 5 1 6 6 5 9l-27 71c-5 11-16 22-29 27l-20 7c5 14 7 29 7 44 0 6 0 11-1 16l30 5c6 2 17-3 21-8l40-48c1-2 3-3 6-3 2 0 3 0 5 1 3 5 5 10 1 13z m-310 165c0 29 29 51 64 51 35 0 64-24 64-51 0-4-1-7-2-11-19 9-40 14-62 14-22 0-43-5-62-14-1 4-2 7-2 11z m64-269c-16 0-30 3-44 8 18 14 34 31 44 50 11-19 26-36 44-50-13-5-28-8-44-8z m61 16c-25 16-44 38-55 64-1 7-11 7-14 0-10-27-29-49-54-64-39 22-66 64-66 112 0 71 58 128 128 128 70 0 128-57 128-128 0-48-27-90-67-112z"/>
<glyph unicode="&#57534;" d="M226 290c-2 0-4 0-4 1-14 8-28 15-44 19-16 5-34 10-52 13-4 0-8 5-6 10 0 5 5 8 10 6 17-3 36-8 52-14 16-7 32-13 47-21 3-2 5-6 3-11 0-2-3-3-6-3z m0-96c-2 0-4 0-4 1-14 8-28 15-44 19-16 5-34 10-52 13-4 0-8 5-6 10 0 5 5 8 10 6 17-3 36-8 52-14 16-7 32-13 47-21 3-2 5-6 3-11 0-2-3-3-6-3z m230 248c-72-2-141-24-192-64-48 38-117 62-192 64l-8 0 0-303 8 0c72-1 139-24 184-61l8-6 8 6c48 39 114 60 184 61l8 0 0 303z m-376-288l0 272c69-4 133-26 176-61l0-267c-46 33-109 54-176 56z m368 0c-66-4-128-23-176-58l0 267c46 37 109 58 176 61z m-146 136c-3 0-4 1-6 4-2 4 0 8 3 12 15 8 31 14 47 20 17 7 35 12 52 15 5 1 8-2 10-7 0-4-2-8-6-9-18-3-36-8-52-13-16-5-30-13-44-19 0-2-2-3-4-3z m0-96c-3 0-4 1-6 4-2 4 0 8 3 12 15 8 31 14 47 20 17 7 35 12 52 15 5 1 8-2 10-7 0-4-2-8-6-9-18-3-36-8-52-13-16-5-30-13-44-19 0-2-2-3-4-3z"/>
<glyph unicode="&#57504;" d="M456 406l-51 52c-15 11-40 22-58 22l-128 0c-16 0-27-14-27-32l0-66c0 0 0 2 16 2l0 64c0 10 3 16 13 16l128 0c0 0 5 0 5 0l0-80c0-18 11-32 28-32l82 0 0-224c0-10-11-16-19-16l-48 0c-3-5-7-11-11-16l59 0c17 0 35 14 35 32l0 224c0 18-13 42-24 54z m-75-38c-10 0-13 6-13 16l0 77c0-3 19-8 26-15l49-51c7-6 11-11 15-27z m-160 0c-59 0-112-26-146-66-24-28-38-64-38-102-2-93 81-168 184-168 102 0 184 75 184 168 0 93-83 168-184 168z m131-74c21-24 34-54 35-86l-85 0c-1 21-4 42-11 59 23 8 43 18 61 27z m-13 12c-16-8-33-16-54-23-10 26-24 48-35 66 35-5 67-21 89-43z m-185-98c1 19 4 38 9 56 18-5 37-8 56-8 19 0 39 3 56 8 7-18 10-37 10-56z m132-16c-1-19-4-38-9-56-18 5-37 8-56 8-19 0-39-3-56-8-7 18-10 37-10 56z m-65 160c3 0 6 0 9 0 12-14 29-40 42-72-16-3-34-6-51-6-18 0-35 3-51 6 12 32 30 58 41 72 3 0 7 0 10 0z m-32-3c-13-18-26-40-35-66-21 7-39 15-55 23 24 22 56 38 90 43z m-101-55c18-9 38-19 61-25-7-19-10-39-11-59l-85 0c1 30 14 60 35 84z m0-188c-21 24-34 54-35 86l85 0c1-21 4-42 11-59-23-8-43-18-61-27z m13-12c16 8 33 16 54 23 10-26 24-48 35-66-35 5-67 21-89 43z m120-46c-3 0-7 0-10 0-11 14-29 40-41 72 16 3 33 6 51 6 17 0 35-3 51-6-13-32-30-58-42-72-4 0-8 0-9 0z m30 3c13 18 26 40 35 66 21-7 39-15 55-23-24-22-56-38-90-43z m101 55c-18 9-38 19-61 25 7 19 10 39 11 59l85 0c-1-30-14-60-35-84z"/>
<glyph unicode="&#57523;" d="M256 464c115 0 208-93 208-208 0-115-93-208-208-208-115 0-208 93-208 208 0 115 93 208 208 208m0 16c-123 0-224-101-224-224 0-123 101-224 224-224 123 0 224 101 224 224 0 123-101 224-224 224z m0-64c-88 0-160-72-160-160 0-88 72-160 160-160 88 0 160 72 160 160 0 88-72 160-160 160z m85-94l-91-160-76 75c-6 6-6 16 0 22 4 3 7 5 12 5 4 0 8-2 11-5l46-46 72 125c3 4 8 8 13 8 3 0 5 0 8-2 6-5 8-14 5-22z"/>
<glyph unicode="&#57513;" d="M256 464c115 0 208-93 208-208 0-115-93-208-208-208-115 0-208 93-208 208 0 115 93 208 208 208m0 16c-123 0-224-101-224-224 0-123 101-224 224-224 123 0 224 101 224 224 0 123-101 224-224 224z m0-80c80 0 144-64 144-144 0-80-64-144-144-144-80 0-144 64-144 144 0 80 64 144 144 144m0 16c-88 0-160-72-160-160 0-88 72-160 160-160 88 0 160 72 160 160 0 88-72 160-160 160z m-77-176c-9 0-19 8-19 16 0 10 8 16 19 16l155 0c10 0 20-6 20-16 0-8-8-16-20-16z"/>
<glyph unicode="&#57537;" d="M256 450c-107 0-192-92-192-202 0-110 85-200 192-200 107 0 192 90 192 200 0 110-85 202-192 202z m174-194l-94 0c0 32-3 53-10 77 26 5 50 13 71 22 19-27 32-62 33-99z m-108 93c-10 29-23 56-39 80 42-7 77-27 104-59-21-10-41-16-65-21z m-66-283c-2 0-3 0-5 0-19 25-33 52-45 84 16 2 32 4 50 4 16 0 34-2 50-4-10-30-26-59-45-84-2 0-3 0-5 0z m0 104c-19 0-37-2-54-5-7 24-10 43-10 75l128 0c0-32-3-51-10-75-17 3-35 5-54 5z m-64 86c0 32 3 51 10 75 17-3 35-3 54-3 19 0 37 2 54 3 7-24 10-43 10-75z m64 174c2 0 3 0 5 0 19-25 33-52 45-84-16-2-32-4-50-4-16 0-34 2-50 4 10 30 26 59 45 84 2 0 3 0 5 0z m-26-1c-16-24-30-51-38-80-24 5-46 11-66 21 26 30 63 52 104 59z m-44-96c-7-24-10-45-10-77l-94 0c1 37 14 72 33 101 21-11 45-19 71-24z m-104-93l94 0c0-32 3-53 10-77-26-5-50-13-71-22-19 27-32 62-33 99z m108-93c10-29 23-56 39-80-42 7-77 27-104 59 21 10 41 16 65 21z m92-78c16 24 30 51 38 80 24-5 46-11 66-21-26-32-63-53-104-59z m44 94c7 24 10 45 10 77l94 0c-1-37-14-72-33-101-23 11-45 19-71 24z"/>
<glyph unicode="&#57536;" d="M352 208c-27 0-48-21-48-48 0-27 21-48 48-48 27 0 48 21 48 48 0 27-21 48-48 48z m0-80c-18 0-32 14-32 32 0 18 14 32 32 32 18 0 32-14 32-32 0-18-14-32-32-32z m-176 240l-80 0c-4 0-8-4-8-8 0-4 4-8 8-8l80 0c4 0 8 4 8 8 0 4-4 8-8 8z m0-48l-80 0c-4 0-8-4-8-8 0-4 4-8 8-8l80 0c4 0 8 4 8 8 0 4-4 8-8 8z m64 8l0 88-32 0 0 80-48 0 0-80-48 0 0 80-48 0 0-80-32 0 0-88c0-55 42-100 96-104l0-16c0-48-39-80-88-80l-8 0 0-16 8 0c57 0 104 39 104 96l0 16c54 4 96 49 96 104z m-64 152l16 0 0-64-16 0z m-96 0l16 0 0-64-16 0z m56-240c-49 0-88 39-88 88l0 72 176 0 0-72c0-49-39-88-88-88z m360-112l0 64-44 6c-1 2-1 4-2 6l26 35-45 45-35-26c-2 1-4 1-6 2l-6 44-64 0-6-44c-2-1-4-1-6-2l-35 26-45-45 26-35c-1-2-1-4-2-6l-44-6 0-64 44-6c1-2 1-4 2-6l-26-35 45-45 35 26c2-1 4-1 6-2l6-44 64 0 6 44c2 1 4 1 6 2l35-26 45 45-26 35c1 2 1 4 2 6z m-55 8l-4-9c0-1-1-3-2-4l-4-9 6-7 18-25-25-25-25 18-7 6-9-4c-1-1-3-2-4-2l-9-4-2-9-4-30-36 0-4 30-2 9-9 4c-1 0-3 1-4 2l-9 4-7-6-25-18-25 25 18 25 6 7-4 9c-1 1-2 3-2 4l-4 9-9 2-30 4 0 36 30 4 9 2 4 9c0 1 1 3 2 4l4 9-6 7-18 25 25 25 25-18 7-6 9 4c1 1 3 2 4 2l9 4 2 9 4 30 35 0 5-30 1-9 9-4c2 0 4-1 5-2l9-4 7 6 25 18 25-25-18-25-6-7 4-9c1-1 2-3 2-4l4-9 9-2 30-4 0-36-30-4z"/>
<glyph unicode="&#57539;" d="M295 428c-7 6-17 5-23-1-6-7-5-17 1-23l162-148-407 0c-9 0-16-7-16-16 0-9 7-16 16-16l407 0-162-148c-6-6-7-16-1-23 4-3 8-5 12-5 4 0 8 1 11 4l205 188z"/>
<glyph unicode="&#57540;" d="M128 256c0-35-29-64-64-64-35 0-64 29-64 64 0 36 29 64 64 64 35 0 64-28 64-64z m384 0c0-35-29-64-64-64-35 0-64 29-64 64 0 36 29 64 64 64 35 0 64-28 64-64z m-347 139c-7-6-7-16 0-22l116-115-116-119c-7-6-7-16 0-22 3-3 7-5 11-5 4 0 8 2 11 5l140 141-140 137c-6 7-16 7-22 0z"/>
<glyph unicode="&#57541;" d="M384 384c53 0 96-43 96-96l0-64c0-53-43-96-96-96l-256 0c-53 0-96 43-96 96l0 64c0 53 43 96 96 96l256 0m0 32l-256 0c-70 0-128-58-128-128l0-64c0-70 58-128 128-128l256 0c70 0 128 58 128 128l0 64c0 70-58 128-128 128z"/>
<glyph unicode="&#57543;" d="M160 416l64 0 0 32-160 0 0-32 64 0 0-320-64 0 0-32 160 0 0 32-64 0z m-64-224l-64 0 0 128 64 0 0 32-96 0 0-192 96 0z m96 160l0-32 288 0 0-128-288 0 0-32 320 0 0 192z"/>
<glyph unicode="&#57544;" d="M0 480l96 0 0-96-96 0z m160-32l352 0 0-32-352 0z m-160-128l96 0 0-96-96 0z m160-32l352 0 0-32-352 0z m-160-128l96 0 0-96-96 0z m160-32l352 0 0-32-352 0z"/>
<glyph unicode="&#57545;" d="M0 512l0-128 128 0 0-384 320 0 0 384 64 0 0 128z m32-96l0 64 96 0 0-64z m384-384l-256 0 0 96 256 0z m0 128l-256 0 0 96 256 0z m0 128l-256 0 0 96 256 0z m64 128l-192 0 0 64 192 0z m-288-192l192 0 0-32-192 0z m0 128l192 0 0-32-192 0z m0-256l192 0 0-32-192 0z"/>
<glyph unicode="&#57547;" d="M412 412c-42 41-97 64-156 64-59 0-114-23-156-64-41-42-64-97-64-156 0-9 7-16 16-16 9 0 16 7 16 16 0 50 20 97 55 133 36 35 83 55 133 55 50 0 97-20 133-55l0 0-69-69 160 0 0 160z m48-140c-9 0-16-7-16-16 0-50-20-97-55-133-36-35-83-55-133-55-50 0-97 20-133 55l0 0 69 69-160 0 0-160 68 68c42-41 97-64 156-64 59 0 114 23 156 64 41 42 64 97 64 156 0 9-7 16-16 16z"/>
<glyph unicode="&#57548;" d="M480 384l0-288c0-18-14-32-32-32l-384 0c-18 0-32 14-32 32l0 288z m-32 96l-384 0c-35 0-64-29-64-64l0-320c0-35 29-64 64-64l384 0c35 0 64 29 64 64l0 320c0 35-29 64-64 64z"/>
<glyph unicode="&#57550;" d="M480 448l-448 0c-18 0-32-14-32-32l0-320c0-18 14-32 32-32l448 0c18 0 32 14 32 32l0 320c0 18-14 32-32 32z m-160-32l0-64-128 0 0 64z m160-320l-448 0 0 320 128 0 0-96 320 0z m-128 256l0 64 128 0 0-64z"/>
<glyph unicode="&#57551;" d="M244 334c-16-3-30-16-38-32-7-14-16-58-78-74 16-17 51-48 115-31 68 18 83 63 75 95-2 5-4 10-7 15l160 159c6 7 6 17 0 23-6 6-16 6-22 0l-161-160c-12 6-27 8-44 5z m236 18l0-256-448 0 0 320 256 0 0 32-288 0 0-384 512 0 0 288z"/>
<glyph unicode="&#57552;" d="M256 512c-141 0-256-115-256-256 0-141 115-256 256-256 141 0 256 115 256 256 0 141-115 256-256 256z m0-480c-124 0-224 100-224 224 0 124 100 224 224 224 124 0 224-100 224-224 0-124-100-224-224-224z m102 335l-129-188-77 82c-6 6-16 6-22 0-7-6-7-16-1-22l104-110 151 220c5 7 4 17-4 22-7 5-17 3-22-4z"/>
<glyph unicode="&#57554;" d="M334 181c2-1 4-1 5-1 7 0 13 4 15 11 3 8-1 17-9 20l-66 23c-2 1-5 6-6 8l-3 35c30 23 50 62 50 107 0 71-50 128-112 128-61 0-112-57-112-128 0-46 22-86 53-108l-3-34c0-2-3-7-6-8l-92-32c-13-5-25-19-28-34l-17-93c-1-8 5-17 13-18 1 0 2 0 3 0 8 0 15 5 16 13l17 93c0 3 4 7 7 9l92 32c14 5 26 20 27 35l2 22c9-3 19-5 28-5 11 0 22 2 31 6l3-23c1-15 13-30 27-35z m-206 203c0 53 36 96 80 96 44 0 80-43 80-96 0-53-36-96-80-96-44 0-80 43-80 96z m373-82c-8 4-18 2-22-6l-133-237-66 67c-6 7-16 7-22 1-7-7-7-17-1-23l96-99 154 275c4 8 1 18-6 22z"/>
<glyph unicode="&#57555;" d="M448 512l-384 0c-35 0-64-29-64-64l0-96c0-35 29-64 64-64l384 0c35 0 64 29 64 64l0 96c0 35-29 64-64 64z m32-160c0-18-14-32-32-32l-384 0c-18 0-32 14-32 32l0 96c0 18 14 32 32 32l384 0c18 0 32-14 32-32z m-32-128l-384 0c-35 0-64-29-64-64l0-96c0-35 29-64 64-64l384 0c35 0 64 29 64 64l0 96c0 35-29 64-64 64z m32-160c0-18-14-32-32-32l-384 0c-18 0-32 14-32 32l0 96c0 18 14 32 32 32l384 0c18 0 32-14 32-32z m-304 384l-96 0c-9 0-16-7-16-16l0-64c0-9 7-16 16-16l96 0c9 0 16 7 16 16l0 64c0 9-7 16-16 16z m256-288l-96 0c-9 0-16-7-16-16l0-64c0-9 7-16 16-16l96 0c9 0 16 7 16 16l0 64c0 9-7 16-16 16z"/>
<glyph unicode="&#57556;" d="M352 416l0 96-64 0 0-96-64 0 0 96-64 0 0-96-32 0 0-128c3-62 51-112 111-120-2-70-59-120-136-120-9 0-16-7-16-16 0-9 7-16 16-16 94 0 166 65 168 152 61 8 110 58 113 120l0 128z m0-128c-4-50-45-89-96-89-51 0-92 39-96 89l0 32 192 0z m0 64l-192 0 0 32 192 0z"/>
<glyph unicode="&#57557;" d="M480 320l-256 0 0-32 256 0 0-64-384 0 0-192c0-18 14-32 32-32l352 0c18 0 32 14 32 32l0 256c0 18-14 32-32 32z m-192-288l-160 0 0 64 160 0z m0 96l-160 0 0 64 160 0z m192-96l-160 0 0 64 160 0z m0 96l-160 0 0 64 160 0z m-261 269l-22 23-69-69 0 161-32 0 0-161-69 69-22-23 107-107z"/>
<glyph unicode="&#57558;" d="M320 384c53 0 96-43 96-96 0-7-1-15-4-25l-9-35 36-5c23-3 41-23 41-47 0-26-22-48-48-48l-352 0c-26 0-48 22-48 48 0 26 22 48 48 48 2 0 3 0 5 0l31-5 5 31c5 31 32 54 63 54 3 0 7 0 12-1l26-5 9 25c15 37 50 61 89 61m0 32c-54 0-100-34-119-82-5 1-11 2-17 2-48 0-87-35-94-81-4 1-7 1-10 1-44 0-80-36-80-80 0-44 36-80 80-80l352 0c44 0 80 36 80 80 0 40-30 73-69 79 3 11 5 21 5 33 0 71-57 128-128 128z"/>
<glyph unicode="&#57559;" d="M496 288l-48 0 0 80c0 9-7 16-16 16l-224 0c-9 0-19 6-23 14l-18 36c-4 8-14 14-23 14l-128 0c-9 0-16-7-16-16l0-352c0-7 4-13 10-15 2-1 4-1 6-1l384 0c9 0 19 7 22 15l84 194c3 8-1 15-10 15z m-368 128l6 0 19-32c10-19 34-32 55-32l208 0 0-64-304 0c-9 0-19-7-22-15l-58-134 0 277z m267-320l-346 0 68 160 339 0z"/>
<glyph unicode="&#57553;" d="M432 384l-192 0c-9 0-21 5-27 11l-42 42c-6 6-18 11-27 11l-128 0c-9 0-16-7-16-16l0-352c0-9 7-16 16-16l416 0c9 0 16 7 16 16l0 288c0 9-7 16-16 16z"/>
<glyph unicode="&#57562;" d="M432 384l-192 0c-9 0-21 5-27 11l-42 42c-6 6-18 11-27 11l-128 0c-9 0-16-7-16-16l0-352c0-9 7-16 16-16l416 0c9 0 16 7 16 16l0 288c0 9-7 16-16 16z m-16-288l-384 0 0 320 104 0c1 0 8-1 9-2l43-41c12-12 35-21 52-21l176 0z"/>
<glyph unicode="&#57561;" d="M496 288l-48 0 0-32-315 0c-9 0-19-7-22-15l-56-124c-4-8-9-8-13 0l-3 7c-4 8-4 21-1 29l52 120c3 8 13 15 22 15l336 0 0 80c0 9-7 16-16 16l-224 0c-9 0-19 6-23 14l-18 36c-4 8-14 14-23 14l-128 0c-9 0-16-7-16-16l0-352c0-7 4-13 10-15 2-1 4-1 6-1l384 0c9 0 19 7 22 15l84 194c3 8-1 15-10 15z"/>
<glyph unicode="&#57564;" d="M396 316c18-21 29-44 29-70 0-71-84-130-187-130-26 0-52 4-76 12l-7 2-6-3-80-46 21 74 3 10-7 6c-23 23-35 48-35 75 0 72 84 130 187 130 26 0 50-4 72-10l13 12c-26 9-55 14-85 14-112 0-203-65-203-146 0-32 15-62 40-86l-32-113 114 66c25-8 52-13 81-13 112 0 203 66 203 146 0 30-13 58-34 81z m78 112l-33 34c-2 2-4 3-6 3-2 0-4-1-6-3l-160-160 0 0c-2-3-5-8-6-11l-19-55c-1-4 0-6 3-6 0 0 1 1 2 1l54 19c3 2 8 5 11 7l0 0 160 160c4 3 4 8 0 11z m-182-126l117 117 22-23-117-116z m5-37l-30-10 11 31c0 1 2 3 3 5l22-22c-2-2-4-3-6-4z m145 143l-22 22 15 15 23-22z"/>
<glyph unicode="&#57565;" d="M152 328c103 0 136 36 136 36l0 84c0 46-113 48-136 48-23 0-136-2-136-48l0-84c0 0 33-36 136-36z m0 152c66 0 120-14 120-32 0-18-54-32-120-32-66 0-120 14-120 32 0 18 54 32 120 32z m-120-55c23-15 68-25 120-25 52 0 97 10 120 25l0-54c-17-13-59-27-120-27-61 0-103 14-120 27z m120-362c-61 0-103 13-120 27l0 54c23-15 68-25 120-25 27 0 52 3 73 7-1 6-1 12-1 18-20-5-44-8-72-8-61 0-103 14-120 27l0 54c23-15 68-25 120-25 32 0 61 4 85 10 2 7 5 12 9 18-22-7-56-12-94-12-66 0-120 14-120 32 0 18 54 32 120 32 56 0 103-10 116-24 4 3 8 7 12 10-25 28-109 30-128 30-23 0-136-2-136-48l0-157c0 0 33-36 136-36 45 0 77 7 98 14-3 5-6 9-8 14-22-7-53-12-90-12z m216 209c-71 0-128-57-128-128 0-71 57-128 128-128 71 0 128 57 128 128 0 71-57 128-128 128z m0-240c-62 0-112 50-112 112 0 62 50 112 112 112 62 0 112-50 112-112 0-62-50-112-112-112z m16 176l-32 0 0-48-48 0 0-32 48 0 0-48 32 0 0 48 48 0 0 32-48 0z"/>
<glyph unicode="&#57566;" d="M160 320l192 0 0-16-192 0z m0-64l192 0 0-16-192 0z m0-64l192 0 0-16-192 0z m349-70c-3 3-8 2-11-1l-50-57 0 385c0 18-14 31-32 31l-208 0c-4 0-8-4-8-8 0-4 4-8 8-8l208 0c9 0 16-6 16-15l0-385-50 54c-3 4-8 4-11 1-4-3-4-8-1-11l70-77 70 80c3 3 3 8-1 11z m-413-90l208 0c4 0 8 4 8 8 0 4-4 8-8 8l-208 0c-9 0-16 8-16 17l0 383 50-54c3-4 8-4 11-1 4 3 4 8 1 11l-70 77-70-80c-3-3-3-8 1-11 3-3 8-2 11 1l50 57 0-383c0-18 14-33 32-33z"/>
<glyph unicode="&#57567;" d="M509 121c-3 3-8 3-11-1l-50-57 0 385c0 18-14 32-32 32l-224 0c-4 0-8-4-8-8 0-4 4-8 8-8l224 0c9 0 16-7 16-16l0-385-50 54c-3 4-8 4-11 1-4-3-4-8-1-11l70-77 70 80c3 3 3 8-1 11z m-413-89l224 0c4 0 8 4 8 8 0 4-4 8-8 8l-224 0c-9 0-16 7-16 16l0 383 50-54c3-3 8-4 11-1 4 3 4 8 1 12l-70 76-70-80c-3-3-3-8 1-11 3-3 8-2 11 1l50 57 0-383c0-18 14-32 32-32z m240 336l-160 0c-9 0-16-7-16-16l0-32c0-9 7-16 16-16l160 0c9 0 16 7 16 16l0 32c0 9-7 16-16 16z m0-48l-160 0 0 32 160 0z m0-48l-160 0c-9 0-16-7-16-16l0-32c0-9 7-16 16-16l160 0c9 0 16 7 16 16l0 32c0 9-7 16-16 16z m0-48l-160 0 0 32 160 0z m0-48l-96 0c-9 0-16-7-16-16l0-16c0-9 7-16 16-16l96 0c9 0 16 7 16 16l0 16c0 9-7 16-16 16z"/>
<glyph unicode="&#57568;" d="M352 208c-27 0-48-21-48-48 0-27 21-48 48-48 27 0 48 21 48 48 0 27-21 48-48 48z m0-80c-18 0-32 14-32 32 0 18 14 32 32 32 18 0 32-14 32-32 0-18-14-32-32-32z m144 0l0 64-44 6c-1 2-1 4-2 6l26 35-45 45-35-26c-2 1-4 1-6 2l-6 44-64 0-6-44c-2-1-4-1-6-2l-35 26-45-45 26-35c-1-2-1-4-2-6l-44-6 0-64 44-6c1-2 1-4 2-6l-26-35 45-45 35 26c2-1 4-1 6-2l6-44 64 0 6 44c2 1 4 1 6 2l35-26 45 45-26 35c1 2 1 4 2 6z m-55 8l-4-9c0-1-1-3-2-4l-4-9 6-7 18-25-25-25-25 18-7 6-9-4c-1-1-3-2-4-2l-9-4-2-9-4-30-36 0-4 30-2 9-9 4c-1 0-3 1-4 2l-9 4-7-6-25-18-25 25 18 25 6 7-4 9c-1 1-2 3-2 4l-4 9-9 2-30 4 0 36 30 4 9 2 4 9c0 1 1 3 2 4l4 9-6 7-18 25 25 25 25-18 7-6 9 4c1 1 3 2 4 2l9 4 2 9 4 30 35 0 5-30 1-9 9-4c2 0 4-1 5-2l9-4 7 6 25 18 25-25-18-25-6-7 4-9c1-1 2-3 2-4l4-9 9-2 30-4 0-36-30-4z m-289 360c-75 0-136-21-136-48l0-224c0-27 61-48 136-48 14 0 27 1 40 3l0 15c-12-1-26-2-40-2-78 0-120 23-120 32l0 48c28-16 75-24 120-24 20 0 38 2 56 5l0 16c-16-3-35-5-56-5-61 0-103 14-120 27l0 61c28-16 75-24 120-24 45 0 92 8 120 24l0-48 16 0 0 144c0 27-61 48-136 48z m120-125c-17-13-59-27-120-27-61 0-103 14-120 27l0 54c23-15 68-25 120-25 52 0 97 10 120 25z m-120 45c-78 0-120 23-120 32 0 9 42 32 120 32 78 0 120-23 120-32 0-9-42-32-120-32z"/>
<glyph unicode="&#57569;" d="M239 240c-18-3-39-4-63-4-95 0-144 26-144 38l0 112c26-18 81-30 144-30 63 0 118 12 144 30l0-74c5 1 11 3 16 4l0 94c0 30-72 54-160 54-88 0-160-24-160-54l0-136c0-30 72-54 160-54 20 0 39 1 56 3 2 6 5 12 7 17z m-63 208c95 0 144-27 144-38 0-11-49-38-144-38-95 0-144 27-144 38 0 11 49 38 144 38z m192-160c62 0 112-50 112-112 0-62-50-112-112-112-62 0-112 50-112 112 0 62 50 112 112 112m0 16c-71 0-128-57-128-128 0-71 57-128 128-128 71 0 128 57 128 128 0 71-57 128-128 128z m-64-112l128 0 0-32-128 0z"/>
<glyph unicode="&#57570;" d="M368 272c62 0 112-50 112-112 0-62-50-112-112-112-62 0-112 50-112 112 0 62 50 112 112 112m0 16c-71 0-128-57-128-128 0-71 57-128 128-128 71 0 128 57 128 128 0 71-57 128-128 128z m64-112l-48 0 0 48-32 0 0-48-48 0 0-32 48 0 0-48 32 0 0 48 48 0z m-336 112c0-9-7-16-16-16-9 0-16 7-16 16 0 9 7 16 16 16 9 0 16-7 16-16z m64 0c0-9-7-16-16-16-9 0-16 7-16 16 0 9 7 16 16 16 9 0 16-7 16-16z m88-48l-216 0 0 96 368 0 0-36c5-1 11-3 16-4l0 40c0 9-4 22-9 29l-78 118c-5 7-16 13-25 13l-176 0c-9 0-20-6-25-13l-78-118c-5-7-9-20-9-29l0-96c0-9 7-16 16-16l207 0c3 6 6 11 9 16z m-210 116l78 118c2 3 9 6 12 6l176 0c3 0 10-3 12-6l78-118c1-1 1-2 2-4l-360 0c1 2 1 3 2 4z"/>
<glyph unicode="&#57571;" d="M239 240c-18-3-39-4-63-4-95 0-144 26-144 38l0 112c26-18 81-30 144-30 63 0 118 12 144 30l0-74c5 1 11 3 16 4l0 94c0 30-72 54-160 54-88 0-160-24-160-54l0-136c0-30 72-54 160-54 20 0 39 1 56 3 2 6 5 12 7 17z m-63 208c95 0 144-27 144-38 0-11-49-38-144-38-95 0-144 27-144 38 0 11 49 38 144 38z m192-160c62 0 112-50 112-112 0-62-50-112-112-112-62 0-112 50-112 112 0 62 50 112 112 112m0 16c-71 0-128-57-128-128 0-71 57-128 128-128 71 0 128 57 128 128 0 71-57 128-128 128z m64-112l-48 0 0 48-32 0 0-48-48 0 0-32 48 0 0-48 32 0 0 48 48 0z"/>
<glyph unicode="&#57563;" d="M442 326c-7-6-16-6-23 0l-67 64 0-310c0-10-6-16-16-16-10 0-16 6-16 16l0 310-67-64c-7-6-16-6-23 0-6 7-6 16 0 23l96 93c7 6 16 6 23 0l96-93c3-7 3-16-3-23z m-378-134l128 0 0-32-128 0z m0 64l96 0 0-32-96 0z m0 64l64 0 0-32-64 0z m0 64l32 0 0-32-32 0z m160-288l-160 0 0 32 160 0z"/>
<glyph unicode="&#57572;" d="M442 163l-96-93c-7-6-16-6-23 0l-96 93c-6 7-6 16 0 23 7 6 16 6 23 0l67-68 0 314c3 10 9 16 19 16 10 0 16-6 16-16l0-310 67 67c7 6 16 6 23 0 6-10 6-19 0-26z m-378 253l160 0 0-32-160 0z m128-96l-128 0 0 32 128 0z m-32-64l-96 0 0 32 96 0z m-32-64l-64 0 0 32 64 0z m-32-64l-32 0 0 32 32 0z"/>
<glyph unicode="&#57580;" d="M480 224l-448 0c-18 0-32-14-32-32l0-160c0-18 14-32 32-32l448 0c18 0 32 14 32 32l0 160c0 18-14 32-32 32z m-224-192l-224 0 0 64 224 0z m224 0l-192 0 0 64 192 0z m0 96l-448 0 0 64 448 0z m0 384l-448 0c-18 0-32-14-32-32l0-160c0-18 14-32 32-32l448 0c18 0 32 14 32 32l0 160c0 18-14 32-32 32z m-224-192l-224 0 0 64 224 0z m224 0l-192 0 0 64 192 0z m0 96l-448 0 0 64 448 0z"/>
<glyph unicode="&#57584;" d="M192 512l-160 0c-18 0-32-14-32-32l0-448c0-18 14-32 32-32l160 0c18 0 32 14 32 32l0 448c0 18-14 32-32 32z m0-480l-160 0 0 64 160 0z m0 96l-160 0 0 64 160 0z m0 96l-160 0 0 64 160 0z m0 96l-160 0 0 64 160 0z m0 96l-160 0 0 64 160 0z m299-203l-22 22-85-84-85 84-22-22 84-85-84-85 22-22 85 84 85-84 22 22-84 85z"/>
<glyph unicode="&#57585;" d="M480 512l-448 0c-18 0-32-14-32-32l0-448c0-18 14-32 32-32l448 0c18 0 32 14 32 32l0 448c0 18-14 32-32 32z m-224-480l-224 0 0 64 224 0z m0 96l-224 0 0 64 224 0z m0 96l-224 0 0 64 224 0z m0 96l-224 0 0 64 224 0z m224-288l-192 0 0 64 192 0z m0 96l-192 0 0 64 192 0z m0 96l-192 0 0 64 192 0z m0 96l-192 0 0 64 192 0z m0 96l-448 0 0 64 448 0z"/>
<glyph unicode="&#57586;" d="M368 512l-107-107 22-23 69 69 0-323 32 0 0 323 69-69 22 23z m-336-480l320 0 0-32-320 0z m0 64l256 0 0-32-256 0z m0 64l192 0 0-32-192 0z m0 64l128 0 0-32-128 0z m0 64l64 0 0-32-64 0z"/>
<glyph unicode="&#57587;" d="M453 130l-69-69 0 323-32 0 0-323-69 69-22-23 107-107 107 107z m-421 382l320 0 0-32-320 0z m0-64l256 0 0-32-256 0z m0-64l192 0 0-32-192 0z m0-64l128 0 0-32-128 0z m0-64l64 0 0-32-64 0z"/>
<glyph unicode="&#57436;" d="M96 512l-64 0c-18 0-32-14-32-32l0-64c0-18 14-32 32-32l64 0c18 0 32 14 32 32l0 64c0 18-14 32-32 32z m0-96l-64 0 0 64 64 0z m96 96l320 0 0-32-320 0z m0-64l320 0 0-32-320 0z m0-64l192 0 0-32-192 0z m-96-224l-64 0c-18 0-32-14-32-32l0-64c0-18 14-32 32-32l64 0c18 0 32 14 32 32l0 64c0 18-14 32-32 32z m0-96l-64 0 0 64 64 0z m96 96l320 0 0-32-320 0z m0 0l320 0 0-32-320 0z m0-64l320 0 0-32-320 0z m0-64l192 0 0-32-192 0z"/>
<glyph unicode="&#57419;" d="M192 225l26-16-13 54-53-13 26-16-40-67c-6-9-7-19-3-27 5-8 14-12 25-12l48 0 0 16-48 0c-5 0-9 1-11 4-1 2 0 7 3 11z m162-31l-13-9c0-1 9-12 18-27 3-4 4-8 3-11-1-2-5-3-10-3l-80 0 0 31-39-39 39-39 0 31 80 0c15 0 21 7 24 12 4 7 3 17-3 27-10 15-18 27-19 27z m-98 131c3 0 7-2 10-7l40-68-26-16 53-13 13 54-26-16-41 67c-6 10-14 15-23 15-9 0-17-5-23-15l-16-27 14-8 16 27c3 5 6 7 9 7z m228 98l-56 47c-6 5-19 10-28 10l-288 0c-9 0-22-5-28-10l-56-47c-6-6-11-17-9-26l58-349c2-9 10-16 19-16l320 0c9 0 17 7 19 16l58 349c2 9-3 20-9 26z m-65-373c0-1-2-2-3-2l-320 0c-1 0-3 1-3 2l-59 350c0 3 2 9 5 11l55 46c4 4 13 7 18 7l288 0c5 0 14-3 18-7l55-46c3-2 5-8 5-11z m13 350l-352 0c-4 0-8-4-8-8 0-4 4-8 8-8l352 0c4 0 8 4 8 8 0 4-4 8-8 8z"/>
<glyph unicode="&#57434;" d="M228 255c1 6 3 11 5 16-17-2-36-3-57-3-95 0-144 26-144 38l0 112c26-18 81-30 144-30 63 0 118 12 144 30l0-70c5 1 11 2 16 3l0 91c0 30-72 54-160 54-88 0-160-24-160-54l0-136c0-30 72-54 160-54 18 0 36 1 52 3z m-52 225c95 0 144-27 144-38 0-11-49-38-144-38-95 0-144 27-144 38 0 11 49 38 144 38z m176-144c-62 0-112-50-112-112 0-25 8-48 22-67l-95-95c-6-6-6-16 0-23 4-3 8-4 12-4 4 0 8 1 11 4l95 95c19-14 42-22 67-22 62 0 112 50 112 112 0 62-50 112-112 112z m68-180c-38-37-98-37-136 0-37 38-37 98 0 136 38 37 98 37 136 0 37-38 37-98 0-136z"/>
<glyph unicode="&#57435;" d="M32 224l0 48c28-16 75-24 120-24 20 0 38 2 56 5l0 16c-16-3-35-5-56-5-61 0-103 14-120 27l0 61c28-16 75-24 120-24 45 0 92 8 120 24l0-48 16 0 0 144c0 27-61 48-136 48-75 0-136-21-136-48l0-224c0-27 61-48 136-48 14 0 27 1 40 3l0 15c-12-1-26-2-40-2-78 0-120 23-120 32z m120 256c78 0 120-23 120-32 0-9-42-32-120-32-78 0-120 23-120 32 0 9 42 32 120 32z m-120-55c23-15 68-25 120-25 52 0 97 10 120 25l0-54c-17-13-59-27-120-27-61 0-103 14-120 27z m320-121c-80 0-144-64-144-144 0-80 64-144 144-144 80 0 144 64 144 144 0 80-64 144-144 144z m0-272c-71 0-128 57-128 128 0 71 57 128 128 128 71 0 128-57 128-128 0-71-57-128-128-128z m-16 208l32 0 0-32-32 0z m32-80l0 16-48 0 0-16 16 0 0-64-16 0 0-16 64 0 0 16-16 0z"/>
<glyph unicode="&#57439;" d="M448 192l-48 0 0-16 48 0c9 0 16-7 16-16l0-80c0-9-7-16-16-16l-384 0c-9 0-16 7-16 16l0 80c0 9 7 16 16 16l48 0 0 16-48 0c-18 0-32-14-32-32l0-80c0-18 14-32 32-32l384 0c18 0 32 14 32 32l0 80c0 18-14 32-32 32z m-201 57l81-81 81 81c3 3 3 8 0 11-3 4-8 4-11 0l-62-61 0 241c0 4-4 8-8 8-4 0-8-4-8-8l0-241-62 61c-3 4-8 4-11 0-3-3-3-8 0-11z m18 118l-81 81-81-81c-3-3-3-8 0-11 3-4 8-4 11 0l62 61 0-241c0-4 4-8 8-8 4 0 8 4 8 8l0 241 62-61c3-4 8-4 11 0 3 3 3 8 0 11z"/>
<glyph unicode="&#57480;" d="M352 208c-27 0-48-21-48-48 0-27 21-48 48-48 27 0 48 21 48 48 0 27-21 48-48 48z m0-80c-18 0-32 14-32 32 0 18 14 32 32 32 18 0 32-14 32-32 0-18-14-32-32-32z m144 0l0 64-44 6c-1 2-1 4-2 6l26 35-45 45-35-26c-2 1-4 1-6 2l-6 44-64 0-6-44c-2-1-4-1-6-2l-35 26-45-45 26-35c-1-2-1-4-2-6l-44-6 0-64 44-6c1-2 1-4 2-6l-26-35 45-45 35 26c2-1 4-1 6-2l6-44 64 0 6 44c2 1 4 1 6 2l35-26 45 45-26 35c1 2 1 4 2 6z m-55 8l-4-9c0-1-1-3-2-4l-4-9 6-7 18-25-25-25-25 18-7 6-9-4c-1-1-3-2-4-2l-9-4-2-9-4-30-36 0-4 30-2 9-9 4c-1 0-3 1-4 2l-9 4-7-6-25-18-25 25 18 25 6 7-4 9c-1 1-2 3-2 4l-4 9-9 2-30 4 0 36 30 4 9 2 4 9c0 1 1 3 2 4l4 9-6 7-18 25 25 25 25-18 7-6 9 4c1 1 3 2 4 2l9 4 2 9 4 30 35 0 5-30 1-9 9-4c2 0 4-1 5-2l9-4 7 6 25 18 25-25-18-25-6-7 4-9c1-1 2-3 2-4l4-9 9-2 30-4 0-36-30-4z m-409 96l0 208c0 13 11 24 24 24l304 0c13 0 24-11 24-24l0-120 16 0 0 120c0 22-18 40-40 40l-304 0c-22 0-40-18-40-40l0-208c0-22 18-40 40-40l136 0 0 16-136 0c-13 0-24 11-24 24z m48 184l64 0 0-16-64 0z m32-48l224 0 0-16-224 0z m0-48l160 0 0-16-160 0z m0-48l80 0 0-16-80 0z"/>
<glyph unicode="&#57500;" d="M409 423l-51 50c-12 13-37 23-54 23l-192 0c-18 0-32-14-32-32l0-432c0-18 14-32 32-32l288 0c18 0 32 14 32 32l0 336c0 18-10 42-23 55z m-11-12c6-6 12-17 15-27l-77 0c-9 0-16 7-16 16l0 77c10-3 21-9 27-15z m18-379c0-9-7-16-16-16l-288 0c-9 0-16 7-16 16l0 432c0 9 7 16 16 16l192 0c0 0 0 0 0 0l0-80c0-18 14-32 32-32l80 0z m-240 243l-38 49c-3 3-2 8 1 11 4 3 9 2 11-1l26-33 58 73c2 4 7 5 11 2 3-3 4-8 1-11z m0-112l-38 49c-3 3-2 8 1 11 4 3 9 2 11-1l26-33 58 73c2 4 7 5 11 2 3-3 4-8 1-11z m0-112l-38 49c-3 3-2 8 1 11 4 3 9 2 11-1l26-33 58 73c2 4 7 5 11 2 3-3 4-8 1-11z m96 269l96 0 0-16-96 0z m0-112l96 0 0-16-96 0z m0-112l96 0 0-16-96 0z"/>
<glyph unicode="&#57388;" d="M416 320c10 0 16-6 16-16l0-224c0-10-6-16-16-16l-160 0c-10 0-16 6-16 16l0 224c0 10 6 16 16 16l160 0m0 16l-160 0c-18 0-32-14-32-32l0-224c0-18 14-32 32-32l160 0c18 0 32 14 32 32l0 224c0 18-14 32-32 32z m-128-64l96 0 0-16-96 0z m0-48l96 0 0-16-96 0z m0-48l96 0 0-16-96 0z m0-48l96 0 0-16-96 0z m-104 336c-75 0-136-21-136-48l0-224c0-27 61-48 136-48 8 0 16 0 24 0l0 16c-8 0-16 0-24 0-78 0-120 22-120 32l0 48c27-16 75-24 120-24 8 0 16 0 24 2l0 16c-8 0-16 0-24 0-61 0-104 12-120 27l0 59c27-16 75-24 120-24 8 0 16 0 24 2l0 6c0 3 0 6 2 10-8 0-16-2-26-2-61 0-104 13-120 27l0 55c22-16 69-26 120-26 51 0 98 10 120 26l0-42 16 0 0 64c0 27-61 48-136 48z m0-80c-78 0-120 22-120 32 0 10 42 32 120 32 78 0 120-22 120-32 0-10-42-32-120-32z"/>
<glyph unicode="&#57419;" d="M192 225l26-16-13 54-53-13 26-16-40-67c-6-9-7-19-3-27 5-8 14-12 25-12l48 0 0 16-48 0c-5 0-9 1-11 4-1 2 0 7 3 11z m162-31l-13-9c0-1 9-12 18-27 3-4 4-8 3-11-1-2-5-3-10-3l-80 0 0 31-39-39 39-39 0 31 80 0c15 0 21 7 24 12 4 7 3 17-3 27-10 15-18 27-19 27z m-98 131c3 0 7-2 10-7l40-68-26-16 53-13 13 54-26-16-41 67c-6 10-14 15-23 15-9 0-17-5-23-15l-16-27 14-8 16 27c3 5 6 7 9 7z m228 98l-56 47c-6 5-19 10-28 10l-288 0c-9 0-22-5-28-10l-56-47c-6-6-11-17-9-26l58-349c2-9 10-16 19-16l320 0c9 0 17 7 19 16l58 349c2 9-3 20-9 26z m-65-373c0-1-2-2-3-2l-320 0c-1 0-3 1-3 2l-59 350c0 3 2 9 5 11l55 46c4 4 13 7 18 7l288 0c5 0 14-3 18-7l55-46c3-2 5-8 5-11z m13 350l-352 0c-4 0-8-4-8-8 0-4 4-8 8-8l352 0c4 0 8 4 8 8 0 4-4 8-8 8z"/>
<glyph unicode="&#57542;" d="M256 502c68 0 126-24 174-72 48-48 72-106 72-174 0-68-24-125-72-174-48-48-106-72-174-72-68 0-125 24-174 72-48 49-72 106-72 174 0 68 24 126 72 174 49 48 106 72 174 72m100-201c11 8 18 16 24 25-11-4-20-7-28-8 10 7 18 15 22 27-10-5-21-9-31-11-10 9-21 14-36 14-13 0-25-5-34-14-9-10-14-21-14-34 0-1 0-2 1-5 0-3 0-5 0-6-41 2-74 19-99 51-5-8-7-16-7-25 0-17 7-30 22-40-9 0-16 3-22 7 0 0 0-1 0-1 0-12 3-22 10-31 8-9 17-14 29-17-6-1-10-2-13-2-4 0-7 1-9 1 7-22 22-33 45-33-17-14-37-21-60-21 0 0-12 0-12 0 24-14 48-21 74-21 42 0 75 14 100 42 26 28 38 60 38 96 0 0 0 6 0 6"/>
<glyph unicode="&#57576;" d="M232 326c3-11 3-20 0-30-3-9-8-14-16-16 0 0-5 0-5 0-14 0-25 10-31 30-2 11-1 20 1 28 4 8 9 13 16 15 0 1 2 1 5 1 15 0 25-9 30-28m24 176c68 0 126-24 174-72 48-48 72-106 72-174 0-68-24-125-72-174-48-48-106-72-174-72-68 0-125 24-174 72-48 49-72 106-72 174 0 68 24 126 72 174 49 48 106 72 174 72m-14-351c20 10 30 26 30 50 0 15-8 30-26 47-9 7-14 13-14 16 0 4 4 9 11 14 11 11 17 25 17 40 0 20-6 34-18 40 0 1 2 2 5 2 3 0 4 0 5 0 14 2 20 5 20 9 0 0 0 2 0 2 0 0-59 0-59 0-4 0-10-1-17-2-7-2-16-7-27-17-11-9-16-22-16-39 0-19 6-32 19-41 8-5 17-8 29-8 0 0 3 0 3 0-2-8 1-17 8-25 0 0-1 0-1 0-47 0-71-16-71-49 0-13 5-24 15-32 9-8 18-12 25-14 7-1 14-2 20-2 0 0 2 0 2 0 0 0 2 0 2 0 13 0 26 3 38 9m130 106c0 0 0 25 0 25 0 0-39 0-39 0 0 0 0 39 0 39 0 0-25 0-25 0 0 0 0-39 0-39 0 0-39 0-39 0 0 0 0-25 0-25 0 0 39 0 39 0 0 0 0-39 0-39 0 0 25 0 25 0 0 0 0 39 0 39 0 0 39 0 39 0m-161-30c11 0 20-3 27-8 6-6 10-14 11-22 1-9-3-17-10-23-7-6-16-9-28-10-12-2-22 0-31 5-9 6-13 13-14 21 0 9 4 18 11 25 7 7 17 11 30 12 0 0 4 0 4 0"/>
<glyph unicode="&#57579;" d="M256 502c68 0 126-24 174-72 48-48 72-106 72-174 0-68-24-125-72-174-48-48-106-72-174-72-68 0-126 24-174 72-48 49-72 106-72 174 0 68 24 126 72 174 48 48 106 72 174 72m58-169c0 0 0 40 0 40 0 0-36 0-36 0-16 0-28-6-38-17-11-11-16-25-16-42 0 0 0-22 0-22 0 0-39 0-39 0 0 0 0-38 0-38 0 0 39 0 39 0 0 0 0-114 0-114 0 0 44 0 44 0 0 0 0 114 0 114 0 0 46 0 46 0 0 0 0 38 0 38 0 0-46 0-46 0 0 0 0 26 0 26 0 10 3 15 10 15 0 0 36 0 36 0"/>
<glyph unicode="&#57581;" d="M256 502c68 0 126-24 174-72 48-48 72-106 72-174 0-68-24-125-72-174-48-48-106-72-174-72-68 0-125 24-174 72-48 49-72 106-72 174 0 68 24 126 72 174 49 48 106 72 174 72m-60-347c0 0 0 159 0 159 0 0-50 0-50 0 0 0 0-159 0-159 0 0 50 0 50 0m-25 180c18 0 27 8 27 24 0 17-9 25-27 25-7 0-14-2-19-7-5-5-8-11-8-18 0-16 9-24 27-24m207-180c0 0 0 94 0 94 0 22-5 40-16 52-11 11-24 17-41 17-23 0-39-8-50-25 0 0-1 0-1 0 0 0-3 21-3 21 0 0-43 0-43 0 1-9 1-26 1-51 0 0 0-108 0-108 0 0 50 0 50 0 0 0 0 92 0 92 0 6 1 10 3 12 4 13 12 20 25 20 16 0 25-12 25-35 0 0 0-89 0-89 0 0 50 0 50 0"/>
<glyph unicode="&#57589;" d="M401 149c-1 12-10 24-21 28l-62 22c-6 2-12 9-13 15l-5 30c22 18 36 47 36 80 0 54-36 96-80 96-44 0-80-42-80-96 0-33 14-62 36-80l-5-31c-1-5-7-13-13-15l-62-22c-11-4-20-17-21-29l-3-50 16-1 3 52c0 6 5 12 11 14l62 22c11 4 21 16 23 27l4 24c9-4 19-6 29-6 10 0 20 2 29 6l5-24c1-12 12-24 23-28l61-22c6-2 11-9 11-15l3-50 16 1z m-210 175c0 45 29 82 65 82 36 0 65-37 65-82 0-44-29-81-65-81-36 0-65 37-65 81z"/>
<glyph unicode="&#57590;" d="M248 413c-23 0-136-2-136-48l0-230c0 0 33-36 136-36 103 0 136 36 136 36l0 230c0 46-113 48-136 48z m120-271c-17-14-59-27-120-27-61 0-103 13-120 27l0 54c23-15 68-25 120-25 52 0 97 10 120 25z m0 73c-17-13-59-27-120-27-61 0-103 14-120 27l0 54c23-15 68-25 120-25 52 0 97 10 120 25z m0 74c-17-14-59-28-120-28-61 0-103 14-120 28l0 54c23-15 68-26 120-26 52 0 97 11 120 26z m-120 44c-66 0-120 15-120 32 0 18 54 32 120 32 66 0 120-14 120-32 0-17-54-32-120-32z"/>
<glyph unicode="&#57487;" d="M208 336c0-18-14-32-32-32-18 0-32 14-32 32 0 18 14 32 32 32 18 0 32-14 32-32z m73-53c4 11 7 24 7 37 0 53-43 96-96 96-53 0-96-43-96-96 0-53 43-96 96-96 10 0 19 1 28 4l36-36 32 0 0-32 32 0 0-32 32 0 0-32 64 0 0 64z m119-171l-32 0 0 16c0 9-7 16-16 16l-16 0 0 16c0 9-7 16-16 16l-16 0 0 16c0 9-7 16-16 16l-25 0-39 39c-10-5-21-7-32-7-44 0-80 36-80 80 0 44 36 80 80 80 44 0 80-36 80-80 0-15-4-29-11-41l139-126z"/>
<glyph unicode="&#57402;" d="M416 384l-320 0c-18 0-32-14-32-32l0-192c0-18 14-32 32-32l320 0c18 0 32 14 32 32l0 192c0 18-14 32-32 32z m-320-16l320 0c9 0 16-7 16-16l0-6-154-103c-12-8-32-8-44 0l-154 103 0 6c0 9 7 16 16 16z m336-42l0-140-106 70z m-246-70l-106-70 0 140z m230-112l-320 0c-9 0-16 7-16 16l0 6 120 80 25-16c9-6 20-9 31-9 11 0 22 3 31 9l25 16 120-80 0-6c0-9-7-16-16-16z"/>
<glyph unicode="&#57451;" d="M352 208c-27 0-48-21-48-48 0-27 21-48 48-48 27 0 48 21 48 48 0 27-21 48-48 48z m0-80c-18 0-32 14-32 32 0 18 14 32 32 32 18 0 32-14 32-32 0-18-14-32-32-32z m99 73l0 0 0 0z m-58 58l0 0 0 0z m-85-1l0 0 0 0z m188-130l0 64-45 9c0 0 25 38 25 38l-45 45-38-25c1 0-9 45-9 45l-64 0-12-46c1 0-35 26-35 26l-45-45c0 0 25-37 25-38 0-1-45-9-45-9l0-64c0 0 45-8 45-9 0-1-25-38-25-38l45-45c0 0 37 25 38 25 1 0 9-45 9-45l64 0c0 0 10 45 9 45l38-25 45 45c0 0-25 38-25 38z m-55 8l-10-22 24-32-25-25-32 24-22-10-6-39-36 0-6 39-22 10-32-24-25 25 24 32-10 22-39 6 0 36 39 6 10 22-24 32 25 25 32-24 22 10 6 39 35 0 6-39 23-10 32 24 25-25-24-32 10-22 39-6 0-36z m10-17l0 0 0 0z m-58-58l0 0 0 0z m-140 58l0 0 0 0z m58-58l0 0 0 0z m-96 211l-157 0c-9 0-10 7-10 16l0 128 256 0 0-87 16 0 0 119c0 18-14 32-32 32l-224 0c-18 0-32-14-32-32l0-160c0-18 14-32 32-32l151 0z m-167 176c0 9 1 16 10 16l224 0c9 0 22-7 22-16l0-16-256 0z"/>
<glyph unicode="&#57495;" d="M240 464c0 18-14 32-32 32l-160 0c-18 0-32-14-32-32l0-160c0-18 14-32 32-32l160 0c18 0 32 14 32 32z m-16-160c0-9-9-16-18-16l-160 0c-9 0-14 7-14 16l0 128 192 0z m-192 144l0 16c0 9 5 16 14 16l160 0c9 0 18-7 18-16l0-16z m432-208l-160 0c-18 0-32-14-32-32l0-160c0-18 14-32 32-32l160 0c18 0 32 14 32 32l0 160c0 18-14 32-32 32z m16-192c0-9-9-16-18-16l-160 0c-9 0-14 7-14 16l0 160c0 9 5 16 14 16l160 0c9 0 18-7 18-16z m-16 448l-160 0c-18 0-32-14-32-32l0-160c0-18 14-32 32-32l160 0c18 0 32 14 32 32l0 160c0 18-14 32-32 32z m16-192c0-9-9-16-18-16l-160 0c-9 0-14 7-14 16l0 160c0 9 5 16 14 16l160 0c9 0 18-7 18-16z m-272-64l-160 0c-18 0-32-14-32-32l0-160c0-18 14-32 32-32l160 0c18 0 32 14 32 32l0 160c0 18-14 32-32 32z m16-192c0-9-9-16-18-16l-160 0c-9 0-14 7-14 16l0 160c0 9 5 16 14 16l160 0c9 0 18-7 18-16z m-160 352l32 0 0-32-32 0z m48 0l32 0 0-32-32 0z m48 0l32 0 0-32-32 0z m-96-48l32 0 0-32-32 0z m48 0l32 0 0-32-32 0z m48 0l32 0 0-32-32 0z m224-160c-35 0-64-21-64-48 0-14 8-27 21-36l-13-44 48 32 0 1c2-1 5-1 8-1 35 0 64 21 64 48 0 27-29 48-64 48z m-224-32c0-18-14-32-32-32-18 0-32 14-32 32 0 18 14 32 32 32 18 0 32-14 32-32z m-32-48c-24 0-44-19-55-48l110 0c-11 29-31 48-55 48z m192 245l32 0 0-37-32 0z m48 48l32 0 0-85-32 0z m48 48l32 0 0-133-32 0z"/>
<glyph unicode="&#57535;" d="M336 336c79 0 144-65 144-144 0-79-65-144-144-144-79 0-144 65-144 144 0 79 65 144 144 144m0 16c-88 0-160-72-160-160 0-88 72-160 160-160 88 0 160 72 160 160 0 88-72 160-160 160z m-8-246l-69 70c-4 3-4 9 0 12 3 4 9 4 12 0l53-53 75 133c3 4 8 5 13 3 4-3 5-8 3-12z m-149 166l-115 0c-9 0-16 7-16 16l0 128 256 0 0-51c5 1 11 2 16 2l0 81c0 18-14 32-32 32l-224 0c-18 0-32-14-32-32l0-160c0-18 14-32 32-32l108 0c2 5 5 11 7 16z m-131 176c0 9 7 16 16 16l224 0c9 0 16-7 16-16l0-16-256 0z"/>
<glyph unicode="&#57508;" d="M464 320c9 0 16-7 16-16l0-224c0-9-7-16-16-16l-192 0c-9 0-16 7-16 16l0 224c0 9 7 16 16 16l192 0m0 16l-192 0c-18 0-32-14-32-32l0-224c0-18 14-32 32-32l192 0c18 0 32 14 32 32l0 224c0 18-14 32-32 32z m-176-48l160 0 0-32-160 0z m16-64l32 0 0-32-32 0z m48 0l32 0 0-32-32 0z m48 0l32 0 0-32-32 0z m-96-48l32 0 0-32-32 0z m48 0l32 0 0-32-32 0z m48 0l32 0 0-32-32 0z m-96-48l32 0 0-32-32 0z m48 0l32 0 0-32-32 0z m48 0l32 0 0-32-32 0z m-176 128l-162 0c-9 0-14 7-14 16l0 128 256 0 0-48 16 0 0 80c0 18-14 32-32 32l-224 0c-18 0-32-14-32-32l0-160c0-18 14-32 32-32l160 0z m-176 176c0 9 5 16 14 16l224 0c9 0 18-7 18-16l0-16-256 0z"/>
<glyph unicode="&#57511;" d="M496 88c0-22-18-40-40-40l-272 0c-22 0-40 18-40 40l0 144c0 22 18 40 40 40l272 0c22 0 40-18 40-40z m-16 144c0 13-11 24-24 24l-272 0c-13 0-24-11-24-24l0-144c0-13 11-24 24-24l272 0c13 0 24 11 24 24z m-224-24l0 16-48 0 0-16 16 0 0-96-16 0 0-16 48 0 0 16-16 0 0 96z m-128 32l-82 0c-9 0-14 7-14 16l0 128 256 0 0-96 16 0 0 128c0 18-14 32-32 32l-224 0c-18 0-32-14-32-32l0-160c0-18 14-32 32-32l80 0z m-96 176c0 9 5 16 14 16l224 0c9 0 18-7 18-16l0-16-256 0z"/>
<glyph unicode="&#57524;" d="M337 240c38 0 68-30 68-68 0-2 0-4 0-6l-1-2-2-22 21 4c3 0 5 1 8 1 27 0 49-22 49-50 0-27-22-49-49-49l-290 0c-22 0-40 18-40 40 0 22 18 40 40 40 5 0 9-1 14-3l20-7 2 21c2 26 23 45 48 45 8 0 16-2 23-6l19-10 5 20c7 31 34 52 65 52m0 16c-39 0-72-27-81-64-9 5-20 8-31 8-34 0-61-26-64-60-6 3-13 4-20 4-31 0-56-25-56-56 0-31 25-56 56-56l290 0c36 0 65 29 65 65 0 36-29 66-65 66-4 0-7-1-11-1 1 3 1 6 1 10 0 46-37 84-84 84z m-33 192c0 18-14 32-32 32l-224 0c-18 0-32-14-32-32l0-160c0-18 14-32 32-32l224 0c18 0 32 14 32 32z m-16-160c0-9-9-16-18-16l-224 0c-9 0-14 7-14 16l0 128 256 0z m-256 144l0 16c0 9 5 16 14 16l224 0c9 0 18-7 18-16l0-16z"/>
<glyph unicode="&#57532;" d="M247 16c-64 2-123 29-167 76-43 47-66 108-64 172 2 59 25 113 64 155l0-67 16 0 0 96-96 0 0-16 71 0c-44-45-69-104-71-167-2-68 22-134 69-184 46-50 110-81 178-81 0 0 0 0 0 0z m17 480c64-2 124-29 168-76 43-47 66-108 64-172-2-59-25-113-64-155l0 67-16 0 0-96 96 0 0 16-70 0c43 45 68 104 70 167 2 68-22 134-69 184-46 50-110 78-178 81z m136-160c0 18-14 32-32 32l-224 0c-18 0-32-14-32-32l0-160c0-18 14-32 32-32l224 0c18 0 32 14 32 32z m-16-160c0-9-9-16-18-16l-224 0c-9 0-14 7-14 16l0 128 256 0z m-256 144l0 16c0 9 5 16 14 16l224 0c9 0 18-7 18-16l0-16z"/>
<glyph unicode="&#57594;" d="M494 46l-153 153c27 33 43 75 43 121 0 106-86 192-192 192-106 0-192-86-192-192 0-106 86-192 192-192 48 0 93 18 126 48l153-153c3-3 7-5 11-5 4 0 8 2 12 5 6 6 6 16 0 23z m-462 274c0 88 72 160 160 160 88 0 160-72 160-160 0-88-72-160-160-160-88 0-160 72-160 160z"/>
<glyph unicode="&#57375;" d="M256 384l-96-96 192 0z m0-256l96 96-192 0z m-224 320l448 0c9 0 16 7 16 16 0 9-7 16-16 16l-448 0c-9 0-16-7-16-16 0-9 7-16 16-16z m448-384l-448 0c-9 0-16-7-16-16 0-9 7-16 16-16l448 0c9 0 16 7 16 16 0 9-7 16-16 16z"/>
<glyph unicode="&#57345;" d="M256 352c-53 0-96-43-96-96 0-53 43-96 96-96 53 0 96 43 96 96 0 53-43 96-96 96z m0-160c-35 0-64 29-64 64 0 35 29 64 64 64 35 0 64-29 64-64 0-35-29-64-64-64z m193 40c-7 6-13 16-13 24 0 7 6 18 13 24l38 31c13 10 17 28 9 42l-36 62c-6 10-17 16-28 16-4 0-8-1-12-3l-47-17c-4-1-8-2-12-2-6 0-11 1-15 3-6 4-13 14-14 23l-8 49c-2 16-16 28-32 28l-72 0c-16 0-30-12-31-28l-9-49c-1-9-8-19-14-23-4-2-9-3-15-3-4 0-8 0-12 2l-47 17c-4 2-8 3-12 3-11 0-22-6-28-16l-36-62c-8-14-4-32 9-41l38-32c7-6 13-16 13-24 0-7-6-18-13-24l-38-32c-13-9-17-27-9-41l36-62c6-10 17-16 28-16 4 0 8 1 12 3l47 17c4 1 8 2 12 2 6 0 11-1 15-3 6-4 13-14 14-23l8-49c2-16 16-28 32-28l72 0c16 0 30 12 31 28l9 49c1 9 8 19 14 23 4 2 9 3 15 3 4 0 8 0 12-2l47-17c4-2 8-3 12-3 11 0 22 6 28 16l36 62c8 14 4 32-9 41z m-17-119l0-1c-7 4-15 7-24 10l-24 9c-7 3-15 4-23 4-8 0-20-1-31-7-15-9-27-28-30-46l-8-50-72 1-8 50c-3 18-16 36-30 45-11 6-23 7-31 7-8 0-16-1-23-4l-48-18-35 63 39 31c14 12 24 32 24 49 0 17-10 37-24 49l-40 32 36 62 0 1c7-4 15-7 24-10l24-9c7-3 15-4 23-4 8 0 20 1 31 7 15 9 27 28 30 46l8 50 72 0 0-1 8-50c3-18 16-36 30-45 11-6 23-7 31-7 8 0 16 1 23 4l48 18 35-63-39-31c-14-12-24-32-24-49 0-17 10-37 24-49l40-32z"/>
<glyph unicode="&#57393;" d="M384 288l-32 0 0 64c0 53-43 96-96 96-53 0-96-43-96-96l0-64-32 0c-18 0-32-14-32-32l0-192c0-18 14-32 32-32l256 0c18 0 32 14 32 32l0 192c0 18-14 32-32 32z m-192 64c0 35 29 64 64 64 35 0 64-29 64-64l0-64-128 0z m192-288l-256 0 0 192 256 0z"/>
<glyph unicode="&#57357;" d="M439 329l-142 142c-6 6-14 9-22 9l-179 0c-18 0-32-14-32-32l0-384c0-18 14-32 32-32l320 0c18 0 32 14 32 32l0 243c0 8-3 16-9 22z m-36-9l-115 0 0 118z m13-256l-320 0 0 384 160 0 0-128c0-18 14-32 32-32l128 0z"/>
<glyph unicode="&#57359;" d="M288 480c-9 0-16-7-16-16 0-9 7-16 16-16l137 0-132-133c-7-6-7-16 0-22 3-3 7-5 11-5 4 0 8 2 11 5l133 132 0-137c0-9 7-16 16-16 9 0 16 7 16 16l0 192z m-64-416l-137 0 132 133c7 6 7 16 0 22-6 7-16 7-22 0l-133-132 0 137c0 9-7 16-16 16-9 0-16-7-16-16l0-192 192 0c9 0 16 7 16 16 0 9-7 16-16 16z"/>
<glyph unicode="&#57378;" d="M491 43l-137 137c29 34 46 77 46 124 0 106-86 192-192 192-106 0-192-86-192-192 0-106 86-192 192-192 47 0 90 17 124 46l137-137c3-3 7-5 11-5 4 0 8 2 11 5 7 6 7 16 0 22z m-443 261c0 88 72 160 160 160 88 0 160-72 160-160 0-88-72-160-160-160-88 0-160 72-160 160z"/>
<glyph unicode="&#57416;" d="M448 192l0-160-160 0 0 160 160 0m32 32l-224 0 0-224 224 0z m-368-224c-62 0-112 50-112 112 0 62 50 112 112 112 62 0 112-50 112-112 0-62-50-112-112-112z m0 192c-44 0-80-36-80-80 0-44 36-80 80-80 44 0 80 36 80 80 0 44-36 80-80 80z m292 64l-296 0 148 256z m-240 32l184 0-92 160z"/>
<glyph unicode="&#57449;" d="M416 288l-160 0 0 160c0 9-7 16-16 16-9 0-16-7-16-16l0-160-160 0c-9 0-16-7-16-16 0-9 7-16 16-16l160 0 0-160c0-9 7-16 16-16 9 0 16 7 16 16l0 160 160 0c9 0 16 7 16 16 0 9-7 16-16 16z"/>
<glyph unicode="&#57510;" d="M192 416l256 0c9 0 16 7 16 16 0 9-7 16-16 16l-256 0c-9 0-16-7-16-16 0-9 7-16 16-16z m256-128l-256 0c-9 0-16-7-16-16 0-9 7-16 16-16l256 0c9 0 16 7 16 16 0 9-7 16-16 16z m0-160l-256 0c-9 0-16-7-16-16 0-9 7-16 16-16l256 0c9 0 16 7 16 16 0 9-7 16-16 16z m-352 304c0-27-21-48-48-48-27 0-48 21-48 48 0 27 21 48 48 48 27 0 48-21 48-48z m0-160c0-27-21-48-48-48-27 0-48 21-48 48 0 27 21 48 48 48 27 0 48-21 48-48z m0-160c0-27-21-48-48-48-27 0-48 21-48 48 0 27 21 48 48 48 27 0 48-21 48-48z"/>
<glyph unicode="&#57414;" d="M481 433l-48 48c-19 19-52 19-71 0l-255-255c-6-6-10-13-12-18l-59-130c-5-10-4-21 2-31 6-9 16-14 27-14 4 0 9 1 13 2l128 59c7 3 14 7 20 13l255 255c20 20 20 52 0 71z m-340-219l184 185 74-74-185-184z m-76-149l56 123 67-67z m394 320l-37-37-74 74 37 37c3 3 8 5 13 5 4 0 9-2 12-5l49-49c7-7 7-18 0-25z"/>
<glyph unicode="&#57376;" d="M352 480l-192 0 96-96z m-192-416l192 0-96 96z m-128 224l448 0c9 0 16 7 16 16 0 9-7 16-16 16l-448 0c-9 0-16-7-16-16 0-9 7-16 16-16z m448-32l-448 0c-9 0-16-7-16-16 0-9 7-16 16-16l448 0c9 0 16 7 16 16 0 9-7 16-16 16z"/>
<glyph unicode="&#57351;" d="M192 128c-4 0-8 2-11 5l-96 96c-7 6-7 16 0 22 6 7 16 7 22 0l85-84 213 212c6 7 16 7 22 0 7-6 7-16 0-22l-224-224c-3-3-7-5-11-5z"/>
<glyph unicode="&#57352;" d="M480 480l-448 0c-9 0-16-7-16-16 0-9 7-16 16-16l448 0c9 0 16 7 16 16 0 9-7 16-16 16z m0-96l-448 0c-9 0-16-7-16-16 0-9 7-16 16-16l448 0c9 0 16 7 16 16 0 9-7 16-16 16z m0-96l-448 0c-9 0-16-7-16-16 0-9 7-16 16-16l448 0c9 0 16 7 16 16 0 9-7 16-16 16z m0-96l-448 0c-9 0-16-7-16-16 0-9 7-16 16-16l448 0c9 0 16 7 16 16 0 9-7 16-16 16z m0-96l-448 0c-9 0-16-7-16-16 0-9 7-16 16-16l448 0c9 0 16 7 16 16 0 9-7 16-16 16z"/>
<glyph unicode="&#57353;" d="M480 384l-448 0c-9 0-16-7-16-16 0-9 7-16 16-16l448 0c9 0 16 7 16 16 0 9-7 16-16 16z m0-96l-448 0c-9 0-16-7-16-16 0-9 7-16 16-16l448 0c9 0 16 7 16 16 0 9-7 16-16 16z m0-96l-448 0c-9 0-16-7-16-16 0-9 7-16 16-16l448 0c9 0 16 7 16 16 0 9-7 16-16 16z"/>
<glyph unicode="&#57391;" d="M384 288l-192 0 0 96c0 53-43 96-96 96-53 0-96-43-96-96l0-112c0-9 7-16 16-16 9 0 16 7 16 16l0 112c0 35 29 64 64 64 35 0 64-29 64-64l0-96-32 0c-18 0-32-14-32-32l0-192c0-18 14-32 32-32l256 0c18 0 32 14 32 32l0 192c0 18-14 32-32 32z m0-224l-256 0 0 192 256 0z"/>
<glyph unicode="&#57597;" d="M448 448l-384 0c-18 0-32-14-32-32l0-320c0-18 14-32 32-32l384 0c18 0 32 14 32 32l0 320c0 18-14 32-32 32z m0-288l-105 105c-13 13-33 13-46 0l-169-169-64 0 0 320 384 0z m-224 144c0-27-21-48-48-48-27 0-48 21-48 48 0 27 21 48 48 48 27 0 48-21 48-48z"/>
<glyph unicode="&#57599;" d="M192 480l-128 0c-18 0-32-14-32-32l0-128c0-18 14-32 32-32l128 0c18 0 32 14 32 32l0 128c0 18-14 32-32 32z m0-160l-128 0 0 128 128 0z m256 160l-128 0c-18 0-32-14-32-32l0-128c0-18 14-32 32-32l128 0c18 0 32 14 32 32l0 128c0 18-14 32-32 32z m0-160l-128 0 0 128 128 0z m-256-96l-128 0c-18 0-32-14-32-32l0-128c0-18 14-32 32-32l128 0c18 0 32 14 32 32l0 128c0 18-14 32-32 32z m0-160l-128 0 0 128 128 0z m256 160l-128 0c-18 0-32-14-32-32l0-128c0-18 14-32 32-32l128 0c18 0 32 14 32 32l0 128c0 18-14 32-32 32z m0-160l-128 0 0 128 128 0z"/>
<glyph unicode="&#57600;" d="M491 43l-137 137c29 34 46 77 46 124 0 106-86 192-192 192-106 0-192-86-192-192 0-106 86-192 192-192 47 0 90 17 124 46l137-137c3-3 7-5 11-5 4 0 8 2 11 5 7 6 7 16 0 22z m-443 261c0 88 72 160 160 160 88 0 160-72 160-160 0-88-72-160-160-160-88 0-160 72-160 160z m248 16l-72 0 0 72c0 9-7 16-16 16-9 0-16-7-16-16l0-72-72 0c-9 0-16-7-16-16 0-9 7-16 16-16l72 0 0-72c0-9 7-16 16-16 9 0 16 7 16 16l0 72 72 0c9 0 16 7 16 16 0 9-7 16-16 16z"/>
<glyph unicode="&#57601;" d="M491 43l-137 137c29 34 46 77 46 124 0 106-86 192-192 192-106 0-192-86-192-192 0-106 86-192 192-192 47 0 90 17 124 46l137-137c3-3 7-5 11-5 4 0 8 2 11 5 7 6 7 16 0 22z m-443 261c0 88 72 160 160 160 88 0 160-72 160-160 0-88-72-160-160-160-88 0-160 72-160 160z m248 16l-176 0c-9 0-16-7-16-16 0-9 7-16 16-16l176 0c9 0 16 7 16 16 0 9-7 16-16 16z"/>
<glyph unicode="&#57602;" d="M416 480l-352 0c-18 0-32-14-32-32l0-352c0-18 14-32 32-32l352 0c18 0 32 14 32 32l0 352c0 18-14 32-32 32z m-352-384l0 352 96 0 0-352z m128 0l0 352 96 0 0-352z m224 0l-96 0 0 352 96 0z"/>
<glyph unicode="&#57603;" d="M432 480l-352 0c-26 0-48-22-48-48l0-352c0-26 22-48 48-48l352 0c26 0 48 22 48 48l0 352c0 26-22 48-48 48z m16-400c0-9-7-16-16-16l-352 0c-9 0-16 7-16 16l0 352c0 9 7 16 16 16l352 0c9 0 16-7 16-16z m-91 283l-149-148-53 52c-6 7-16 7-22 0-7-6-7-16 0-22l64-64c3-3 7-5 11-5 4 0 8 2 11 5l160 160c7 6 7 16 0 22-6 7-16 7-22 0z"/>
<glyph unicode="&#57604;" d="M363 411c-6 7-16 7-22 0-7-6-7-16 0-22l100-101-370 0 100 101c7 6 7 16 0 22-6 7-16 7-22 0l-140-139 140-139c3-3 7-5 11-5 4 0 8 2 11 5 7 6 7 16 0 22l-100 101 370 0-100-101c-7-6-7-16 0-22 3-3 7-5 11-5 4 0 8 2 11 5l140 139z"/>
<glyph unicode="&#57605;" d="M332 362c-31 42-60 81-60 118 0 9-7 16-16 16-9 0-16-7-16-16 0-37-29-76-60-118-39-53-84-113-84-190 0-86 72-156 160-156 88 0 160 70 160 156 0 77-45 137-84 190z m-76-314c-71 0-128 56-128 124 0 66 40 120 78 171 19 26 37 51 50 76 13-25 31-50 50-76 38-51 78-105 78-171 0-68-57-124-128-124z"/>
<glyph unicode="&#57606;" d="M416 480l-352 0c-18 0-32-14-32-32l0-352c0-18 14-32 32-32l352 0c18 0 32 14 32 32l0 352c0 18-14 32-32 32z m0-384l-352 0 0 96 352 0z m0 128l-352 0 0 96 352 0z m0 128l-352 0 0 96 352 0z"/>
<glyph unicode="&#57607;" d="M416 480l-352 0c-18 0-32-14-32-32l0-352c0-18 14-32 32-32l352 0c18 0 32 14 32 32l0 352c0 18-14 32-32 32z m-352-32l160 0 0-96-160 0z m0-128l160 0 0-96-160 0z m0-224l0 96 160 0 0-96z m352 0l-160 0 0 96 160 0z m0 128l-160 0 0 96 160 0z m0 128l-160 0 0 96 160 0z"/>
<glyph unicode="&#57608;" d="M240 496c-123 0-224-100-224-224 0-124 101-224 224-224 123 0 224 100 224 224 0 124-101 224-224 224z m0-416c-106 0-192 86-192 192 0 106 86 192 192 192 106 0 192-86 192-192 0-106-86-192-192-192z m96 208l-80 0 0 112c0 9-7 16-16 16-9 0-16-7-16-16l0-144 112 0c9 0 16 7 16 16 0 9-7 16-16 16z"/>
<glyph unicode="&#57609;" d="M448 352l-96 0 0 96c0 18-14 32-32 32l-256 0c-18 0-32-14-32-32l0-256c0-18 14-32 32-32l96 0 0-96c0-18 14-32 32-32l256 0c18 0 32 14 32 32l0 256c0 18-14 32-32 32z m-384-160l0 256 256 0 0-96-128 0c-18 0-32-14-32-32l0-128z m256 128l0-128-128 0 0 128z m128-256l-256 0 0 96 128 0c18 0 32 14 32 32l0 128 96 0z"/>
<glyph unicode="&#57610;" d="M352 480l-224 0c-18 0-32-14-32-32l0-352c0-18 14-32 32-32l224 0c18 0 32 14 32 32l0 352c0 18-14 32-32 32z m0-384l-224 0 0 96 224 0z m0 128l-224 0 0 96 224 0z m0 128l-224 0 0 96 224 0z"/>
<glyph unicode="&#57611;" d="M384 480l-288 0c-18 0-32-14-32-32l0-352c0-18 14-32 32-32l288 0c18 0 32 14 32 32l0 352c0 18-14 32-32 32z m-288-384l0 352 128 0 0-352z m288 0l-128 0 0 352 128 0z"/>
<glyph unicode="&#57612;" d="M263 256l132 133c7 6 7 16 0 22-6 7-16 7-22 0l-133-132-133 132c-6 7-16 7-22 0-7-6-7-16 0-22l132-133-132-133c-7-6-7-16 0-22 3-3 7-5 11-5 4 0 8 2 11 5l133 132 133-132c3-3 7-5 11-5 4 0 8 2 11 5 7 6 7 16 0 22z"/>
<glyph unicode="&#57613;" d="M287 277c-1 18-13 35-34 46-12 6-26 11-42 13 2 6 3 12 4 18 0 4-2 8-7 9-4 1-8-2-9-7-1-6-2-12-4-18-6 0-13 0-20 0-23-1-44-4-63-9l0 87 112 0c4 0 8 4 8 8 0 4-4 8-8 8l-112 0 0 56c0 4-4 8-8 8-4 0-8-4-8-8l0-56-64 0c-4 0-8-4-8-8 0-4 4-8 8-8l64 0 0-92c-48-16-77-44-76-70 1-13 8-23 22-28 13-6 28-6 39-6 61 2 106 38 126 101 14-2 28-6 38-12 16-9 25-20 26-33 1-27-40-50-92-52-4 0-8-4-8-8 0-5 4-8 8-8 0 0 0 0 1 0 63 2 108 31 107 69z m-191-39c-5-1-10-2-16-2-12 0-24 1-32 4-12 5-12 12-12 14 0 17 21 39 60 54z m16 3l0 72c18 5 40 8 64 9 2 0 4 0 6 0 3 0 6 0 8 0-14-42-42-70-78-81z m379-198l-118 256c-3 6-12 6-15 0l-118-256c-2-4 0-8 4-10 4-2 9 0 11 4l35 75 152 0 35-75c1-3 4-5 7-5 1 0 2 0 3 1 4 2 6 6 4 10z m-194 85l69 149 68-149z"/>
<glyph unicode="&#57614;" d="M448 464l-384 0c-18 0-32-14-32-32l0-352c0-18 14-32 32-32l384 0c18 0 32 14 32 32l0 352c0 18-14 32-32 32z m16-384c0-9-7-16-16-16l-384 0c-9 0-16 7-16 16l0 160 110 0 43 115 112-256 53 141 98 0z m0 176l-110 0-43-115-112 256-53-141-98 0 0 176c0 9 7 16 16 16l384 0c9 0 16-7 16-16z"/>
<glyph unicode="&#57615;" d="M464 224l-48 0-16-16 64 0c9 0 16-7 16-16l0-128c0-9-7-16-16-16l-400 0c-9 0-16 7-16 16l0 128c0 9 7 16 16 16l64 0-16 16-48 0c-18 0-32-14-32-32l0-128c0-18 14-32 32-32l400 0c18 0 32 14 32 32l0 128c0 18-14 32-32 32z m-313 41l113-113 113 113c3 3 3 8 0 11-3 4-8 4-11 0l-94-93 0 305c0 4-4 8-8 8-4 0-8-4-8-8l0-305-94 93c-3 4-8 4-11 0-3-3-3-8 0-11z"/>
<glyph unicode="&#57616;" d="M448 432c0 35-86 64-192 64-106 0-192-29-192-64l0-339c0-35 85-62 191-62 105 0 193 26 193 61z m-368-141c35-23 105-35 175-35 70 0 141 12 177 35l0-93c-22-20-88-38-177-38-89 0-153 18-175 39z m176 189c114 0 176-32 176-48 0-16-62-48-176-48-114 0-176 32-176 48 0 16 62 48 176 48z m0-112c79 0 146 16 176 39l0-97c-22-20-88-38-177-38-89 0-153 18-175 39l0 96c30-23 97-39 176-39z m-1-321c-115 0-175 30-175 46l0 86c35-23 105-35 175-35 70 0 141 12 177 35l0-87c0-15-63-45-177-45z"/>
<glyph unicode="&#57617;" d="M160 461l0-160 16 0 0 160c0 9 7 16 16 16l256 0c9 0 16-7 16-16l0-400c0-9-7-16-16-16l-256 0c-9 0-16 7-16 16l0 160-16 0 0-160c0-18 14-32 32-32l256 0c18 0 32 14 32 32l0 400c0 17-14 32-32 32l-256 0c-18 0-32-15-32-32z m135-313l113 113-113 113c-3 3-8 3-11 0-4-3-4-8 0-11l93-94-321 0c-4 0-8-4-8-8 0-5 4-8 8-8l321 0-93-94c-4-3-4-8 0-11 3-3 8-3 11 0z"/>
<glyph unicode="&#57618;" d="M424 384l-152 0 0 93c0 13-11 24-24 24-4 0-8-1-12-3l-176-99c-7-5-12-13-12-21l0-338c0-8 4-15 10-19 0 0 0-1 0-1 4-2 9-4 14-4l352 0c13 0 24 11 24 24l0 320c0 13-11 24-24 24z m-360-6c0 3 2 5 4 7l176 99c1 0 3 1 4 1 4 0 8-3 8-8l0-327c0-3-2-5-4-7l-188-105c0 0 0 1 0 2z m368-338c0-4-4-8-8-8l-337 0 173 97c7 5 12 13 12 21l0 218 152 0c4 0 8-4 8-8z m-64 136l-48 0c-4 0-8-4-8-8 0-4 4-8 8-8l48 0c4 0 8 4 8 8 0 4-4 8-8 8z m0-64l-48 0c-4 0-8-4-8-8 0-4 4-8 8-8l48 0c4 0 8 4 8 8 0 4-4 8-8 8z m0 128l-48 0c-4 0-8-4-8-8 0-4 4-8 8-8l48 0c4 0 8 4 8 8 0 4-4 8-8 8z m0 64l-48 0c-4 0-8-4-8-8 0-4 4-8 8-8l48 0c4 0 8 4 8 8 0 4-4 8-8 8z"/>
<glyph unicode="&#57619;" d="M472 117l-103 102c-37 30-64 70-79 114l-32 93c-13 34-43 51-70 64-47 22-112 5-155-37-2-2-3-5-2-7 0-3 2-5 4-6l115-53c4-3 6-8 4-12l-21-46c-2-4-8-6-12-4l-92 42c-2 2-5 1-7 0-3-1-4-4-4-7-2-65 24-112 75-136 18-8 38-11 58-14 18-2 35-4 49-11 17-8 32-17 45-28l154-145c11-9 24-13 37-13 19 0 36 8 47 23 18 24 13 61-11 81z m-2-71c-8-11-20-17-34-17-9 0-19 3-26 9l-154 145c-14 12-31 22-49 31-17 7-36 10-54 12-18 3-37 5-54 13-50 23-63 70-65 109l80-38c12-5 28 0 33 12l22 46c5 12 0 27-13 33l-103 48c38 33 90 44 128 26 24-11 51-27 61-55l32-92c17-47 46-89 84-121l104-102c18-15 22-42 8-59z m-20 25c0-9-7-16-16-16-9 0-16 7-16 16 0 9 7 16 16 16 9 0 16-7 16-16z"/>
<glyph unicode="&#57620;" d="M478 429l-49 49c-13 13-36 13-49 0l-293-293c-6-6-11-13-14-21l-54-124c-3-5-2-11 1-16 3-4 8-7 13-7 2 0 5 1 7 2l124 54c8 3 15 8 21 14l293 293c13 13 13 36 0 49z m-445-396l50 114 64-64z m141 66c-4-4-8-7-12-9l-72 72c2 4 5 8 9 12l246 246 75-75z m292 292l-34-35-76 76 35 34c4 4 8 6 14 6 5 0 10-2 13-6l48-48c8-7 8-20 0-27z"/>
<glyph unicode="&#57621;" d="M266 366c-3-3-3-9 0-12l67-66-189 0c-4 0-8-4-8-8 0-4 4-8 8-8l189 0-67-66c-3-3-3-9 0-12 2-1 4-2 6-2 2 0 4 1 6 2l85 86-85 86c-3 3-9 3-12 0z m-8 98c-123 0-224-82-224-184 0-46 21-89 56-121l-26-111 111 61c25-8 54-13 83-13 124 0 224 82 224 184 0 102-100 184-224 184z m0-352c-27 0-53 4-78 13l-7 2-6-4-79-43 17 75 3 9-7 7c-33 30-51 69-51 109 0 93 94 168 208 168 115 0 208-75 208-168 0-93-93-168-208-168z"/>
<glyph unicode="&#57622;" d="M184 280c0-13-11-24-24-24-13 0-24 11-24 24 0 13 11 24 24 24 13 0 24-11 24-24z m192 0c0-13-11-24-24-24-13 0-24 11-24 24 0 13 11 24 24 24 13 0 24-11 24-24z m-96 0c0-13-11-24-24-24-13 0-24 11-24 24 0 13 11 24 24 24 13 0 24-11 24-24z m-24 184c-124 0-224-82-224-184 0-46 21-89 56-121l-26-111 110 61c26-8 54-13 84-13 124 0 224 82 224 184 0 102-100 184-224 184z m0-352c-27 0-53 4-79 13l-6 2-7-4-79-43 18 75 2 9-7 7c-32 30-50 69-50 109 0 93 93 168 208 168 115 0 208-75 208-168 0-93-93-168-208-168z"/>
<glyph unicode="&#57624;" d="M248 496c-128 0-232-104-232-232 0-128 104-232 232-232 128 0 232 104 232 232 0 128-104 232-232 232z m0-448c-119 0-216 97-216 216 0 119 97 216 216 216 119 0 216-97 216-216 0-119-97-216-216-216z m118 310l-170-171-66 67c-3 3-9 3-12 0-3-3-3-9 0-12l78-77 182 181c3 3 3 9 0 12-3 3-9 3-12 0z"/>
<glyph unicode="&#57625;" d="M448 432l-384 0c-18 0-32-14-32-32l0-288c0-18 14-32 32-32l384 0c18 0 32 14 32 32l0 288c0 18-14 32-32 32z m-384-16l384 0c9 0 16-7 16-16l0-27-189-164c-10-9-28-9-38 0l-189 164 0 27c0 9 7 16 16 16z m400-64l0-201-107 108z m-309-93l-107-108 0 201z m293-163l-384 0c-9 0-16 7-16 16l0 16 119 120 60-52c8-7 18-10 29-10 11 0 21 3 29 10l60 52 119-120 0-16c0-9-7-16-16-16z"/>
<glyph unicode="&#57626;" d="M373 273l-13-14c65-12 104-34 104-51 0-25-84-61-216-61-132 0-216 36-216 61 0 17 39 39 104 51l-13 14c-64-14-107-38-107-65l0-117c0-43 102-75 230-75 128 0 234 31 234 74l0 118c0 27-43 51-107 65z m91-183c0-21-73-58-218-58-133 0-214 34-214 59l0 89c34-29 118-49 216-49 98 0 182 20 216 49z m-329 239l113-113 113 113c3 3 3 8 0 11-3 4-8 4-11 0l-94-93 0 241c0 4-4 8-8 8-4 0-8-4-8-8l0-241-94 93c-3 4-8 4-11 0-3-3-3-8 0-11z"/>
<glyph unicode="&#57627;" d="M432 464l-368 0c-18 0-32-14-32-32l0-352c0-18 14-32 32-32l368 0c18 0 32 14 32 32l0 352c0 18-14 32-32 32z m-384-32c0 9 7 16 16 16l176 0 0-64-192 0z m0-64l192 0 0-64-192 0z m0-80l192 0 0-64-192 0z m0-80l192 0 0-64-192 0z m16-144c-9 0-16 7-16 16l0 48 192 0 0-64z m384 16c0-9-7-16-16-16l-176 0 0 64 192 0z m0 64l-192 0 0 64 192 0z m0 80l-192 0 0 64 192 0z m0 80l-192 0 0 64 192 0z m-192 80l0 64 176 0c9 0 16-7 16-16l0-48z"/>
<glyph unicode="&#57628;" d="M248 496c-128 0-232-104-232-232 0-128 104-232 232-232 128 0 232 104 232 232 0 128-104 232-232 232z m0-448c-119 0-216 97-216 216 0 119 97 216 216 216 119 0 216-97 216-216 0-119-97-216-216-216z m0 352c4 0 8 4 8 8l0 32c0 4-4 8-8 8-4 0-8-4-8-8l0-32c0-4 4-8 8-8z m0-272c-4 0-8-4-8-8l0-32c0-4 4-8 8-8 4 0 8 4 8 8l0 32c0 4-4 8-8 8z m176 144l-32 0c-4 0-8-4-8-8 0-4 4-8 8-8l32 0c4 0 8 4 8 8 0 4-4 8-8 8z m-320 0l-32 0c-4 0-8-4-8-8 0-4 4-8 8-8l32 0c4 0 8 4 8 8 0 4-4 8-8 8z m263 122l-97-97c-6 5-14 7-22 7-22 0-40-18-40-40 0-22 18-40 40-40 8 0 16 2 22 7l81-81c3-3 8-3 11 0 3 3 3 8 0 11l-81 81c5 6 7 14 7 22 0 8-2 16-7 22l97 97c3 3 3 8 0 11-3 3-8 3-11 0z m-143-130c0 13 11 24 24 24 13 0 24-11 24-24 0-13-11-24-24-24-13 0-24 11-24 24z"/>
<glyph unicode="&#57629;" d="M248 496c-128 0-232-104-232-232 0-128 104-232 232-232 128 0 232 104 232 232 0 128-104 232-232 232z m0-448c-119 0-216 97-216 216 0 119 97 216 216 216 119 0 216-97 216-216 0-119-97-216-216-216z m114 327c3 3 3 8 0 11-3 3-8 3-11 0l-98-105c-3-3-8-3-11 0l-105 97c-3 3-8 3-11 0-3-3-3-8 0-11l105-98c3-3 3-8 0-11l-97-105c-3-3-3-8 0-11 3-3 8-3 11 0l98 105c3 3 8 3 11 0l105-97c3-3 8-3 11 0 3 3 3 8 0 11l-105 98c-3 3-3 8 0 11z"/>
<glyph unicode="&#57630;" d="M361 228c3 3 3 8 0 11l-113 113-113-113c-3-3-3-8 0-11 3-4 8-4 11 0l94 93 0-289c0-4 4-8 8-8 4 0 8 4 8 8l0 289 94-93c3-4 8-4 11 0z m87 252l-400 0c-18 0-32-14-32-32l0-288c0-18 14-32 32-32l144 0 0 16-144 0c-9 0-16 7-16 16l0 240 432 0 0-240c0-9-7-16-16-16l-144 0 0-16 144 0c18 0 32 14 32 32l0 288c0 18-14 32-32 32z m16-64l-432 0 0 32c0 9 7 16 16 16l400 0c9 0 16-7 16-16z"/>
<glyph unicode="&#57631;" d="M467 69c-3 35-26 63-57 72l-59 18c-18 6-32 23-33 43l-1 12c4 3 7 6 11 9 30 31 48 78 48 131-1 86-47 142-118 142l-4 0c-71 0-117-56-117-142-1-53 17-100 47-131 4-3 7-6 11-9l-1-12c-1-20-15-37-33-43l-59-18c-31-9-54-37-57-72l-5-52c0-5 3-9 7-9 1 0 1 0 1 0 4 0 8 3 8 7l5 53c3 28 21 50 45 58l60 18c24 7 42 30 44 57l0 2c14-7 29-11 44-11 0 0 0 0 0 0l4 0c15 0 30 4 44 11l0-2c2-27 20-50 44-57l60-18c25-8 42-30 45-58l5-53c0-4 4-7 8-7 0 0 1 0 1 0 4 0 7 4 7 9z m-211 139l-2 0c-21 0-41 9-58 26-28 28-44 71-44 120 1 78 39 126 102 126l4 0c63 0 101-48 101-126 1-48-15-92-43-120-17-17-37-26-58-26z"/>
<glyph unicode="&#57632;" d="M503 260c-63 94-153 148-247 148-94 0-184-54-247-148l-3-4 3-4c63-94 153-148 247-148 94 0 184 54 247 148l3 4z m-247-140c-87 0-171 49-230 136 59 87 143 136 230 136 87 0 171-49 230-136-59-87-143-136-230-136z m0 232c-53 0-96-43-96-96 0-53 43-96 96-96 53 0 96 43 96 96 0 53-43 96-96 96z m0-176c-44 0-80 36-80 80 0 44 36 80 80 80 44 0 80-36 80-80 0-44-36-80-80-80z"/>
<glyph unicode="&#57633;" d="M464 224l-160 0 0-16 160 0c9 0 16-7 16-16l0-128c0-9-7-16-16-16l-400 0c-9 0-16 7-16 16l0 128c0 9 7 16 16 16l160 0 0 16-160 0c-18 0-32-14-32-32l0-128c0-18 14-32 32-32l400 0c18 0 32 14 32 32l0 128c0 18-14 32-32 32z m-87 175l-113 113-113-113c-3-3-3-8 0-11 3-4 8-4 11 0l94 93 0-321c0-4 4-8 8-8 4 0 8 4 8 8l0 321 94-93c3-4 8-4 11 0 3 3 3 8 0 11z"/>
<glyph unicode="&#57634;" d="M464 224l0-176-176 0 0 176 176 0m16 16l-208 0 0-208 208 0z m-344-16c49 0 88-39 88-88 0-49-39-88-88-88-49 0-88 39-88 88 0 49 39 88 88 88m0 16c-57 0-104-47-104-104 0-57 47-104 104-104 57 0 104 47 104 104 0 57-47 104-104 104z m120 224l102-176-204 0 102 176m0 32l-129-224 258 0z"/>
<glyph unicode="&#57383;" d="M227 259l-26 8c-1 1-3 5-4 8l-5 23c30 19 51 56 51 99 0 62-43 112-96 112-53 0-96-50-96-112 0-43 21-80 52-99l-5-23c-1-3-5-8-8-9l-49-15c-14-5-26-19-29-34l-9-53c-1-8 5-17 14-18 0 0 1 0 2 0 8 0 15 5 16 13l9 53c0 3 4 7 7 8l48 16c14 4 27 18 30 32l4 19c5-1 9-2 14-2 5 0 10 1 14 1l5-18c2-12 11-26 25-31l27-8c1-1 3-1 5-1 6 0 13 4 15 11 3 8-2 17-11 20z m-144 138c0 44 29 80 64 80 35 0 64-36 64-80 0-44-29-80-64-80-35 0-64 36-64 80z m417-322c-3 14-15 28-29 33l-49 16c-3 1-7 6-8 9l-5 22c31 18 52 55 52 98 0 62-43 112-96 112-53 0-96-50-96-112 0-43 21-80 51-98l-5-22c-1-3-5-8-8-9l-48-16c-14-5-27-19-29-33l-9-53c-1-9 4-17 13-19 1 0 2 0 3 0 7 0 14 6 16 14l8 52c1 3 5 8 8 9l48 15c14 5 26 18 29 33l4 17c5-1 10-2 15-2 5 0 10 1 14 2l4-17c3-15 16-28 30-33l48-15c3-1 7-6 7-9l9-52c1-8 8-14 16-14 1 0 2 0 2 0 9 2 15 10 14 19z m-199 178c0 44 29 80 64 80 35 0 64-36 64-80 0-44-29-80-64-80-35 0-64 36-64 80z"/>
<glyph unicode="&#57509;" d="M288 160l131 0-85-85c-6-6-6-16 0-22 3-3 7-5 11-5 5 0 9 2 12 5l123 123-123 123c-7 7-17 7-23 0-6-6-6-16 0-22l85-85-131 0c-124 0-224 100-224 224l0 16c0 9-7 16-16 16-9 0-16-7-16-16l0-16c0-141 115-256 256-256z"/>
<glyph unicode="&#57433;" d="M235 226l13-56c2-8 8-13 16-13 1 0 2 0 3 1 9 2 14 10 12 19l-14 62c41 24 69 72 69 128 0 80-56 145-126 145-70 0-126-65-126-145 0-56 28-104 69-128l-11-47c0-3-5-7-8-8l-76-25c-14-5-26-19-28-34l-13-76c-2-9 4-17 13-19 1 0 2 0 2 0 8 0 15 6 16 13l13 77c1 3 4 7 7 8l76 25c14 5 26 18 30 32l9 41c9-2 18-4 27-4 9 0 18 2 27 4z m-121 141c0 62 42 113 94 113 52 0 94-51 94-113 0-62-42-113-94-113-52 0-94 51-94 113z m391-138l-44-44c-6-6-16-6-23 0l-29 29c-6 7-6 17 0 23l44 44c-30 13-65 8-87-15-23-23-28-57-15-87l-117-118c-13-12-13-33 0-46l5-5c13-13 34-13 46 0l118 117c30-13 64-8 87 15 23 22 28 57 15 87z"/>
<glyph unicode="&#57507;" d="M425 99c0-9-7-16-16-16-9 0-16 7-16 16 0 9 7 16 16 16 9 0 16-7 16-16z m56 43l-142 141c27 78 0 162-67 201-24 14-54 20-82 20-44 0-85-15-98-38-4-8-2-18 6-22l90-53c8-4 11-14 6-22l-41-70c-3-5-8-8-14-8-2 0-5 0-8 2l-90 52c-2 1-5 2-8 2-6 0-11-3-14-8-22-38 12-129 74-165 23-13 49-20 75-20 20 0 40 4 59 12l139-139c12-13 29-19 46-19 16 0 33 6 46 19l23 23c25 25 25 67 0 92z m-23-69l-23-23c-6-7-14-10-23-10-9 0-17 3-24 10l-138 138-15 15-19-8c-16-6-32-9-48-9-21 0-41 5-59 16-41 24-63 75-65 104l71-41c8-4 16-6 24-6 18 0 34 9 42 24l41 70c13 23 5 53-18 66l-71 41c13 7 33 12 57 12 25 0 48-6 66-16 52-30 75-98 53-162l-6-19 14-14 141-142c6-6 10-14 10-23 0-9-4-17-10-23z"/>
<glyph unicode="&#57592;" d="M490 297c9 8 4 21-7 22l-151 15c-1 1-2 1-3 2l-61 140c-2 5-7 8-12 8-5 0-10-3-12-8l-61-140c-1-1-2-1-3-2l-151-15c-11-1-16-14-7-22l113-102c1-1 1-2 1-3l-32-148c-2-8 5-16 12-16 3 0 5 1 7 2l131 76c2 0 2 0 4 0l131-76c2-1 4-2 6-2 8 0 15 8 13 16l-32 148c0 1 0 2 1 3z m-122-217l-112 65-111-65 28 126-97 86 128 12 52 119 53-119 128-12-97-86z"/>
<glyph unicode="&#57593;" d="M400 448l0-371-94 94c-9 9-21 14-34 14-13 0-25-5-34-14l-94-94 0 371 256 0m0 32l-256 0c-18 0-32-14-32-32l0-409c0-10 8-16 16-16 4 0 8 1 11 4l122 122c3 3 7 4 11 4 4 0 8-1 11-4l122-122c3-3 7-4 11-4 8 0 16 6 16 16l0 409c0 18-14 32-32 32z"/>
<glyph unicode="&#57583;" d="M160 416c0-35-29-64-64-64-35 0-64 29-64 64 0 35 29 64 64 64 35 0 64-29 64-64z m-112-112c-9 0-16-7-16-16l0-256c0-9 7-16 16-16 9 0 16 7 16 16l0 256c0 9-7 16-16 16z m176 144l256 0c9 0 16 7 16 16 0 9-7 16-16 16l-256 0c-9 0-16-7-16-16 0-9 7-16 16-16z m160-64l-128-128 112 0c0-115-93-208-208-208-9 0-16-7-16-16 0-9 7-16 16-16 132 0 240 108 240 240l112 0z"/>
<glyph unicode="&#57398;" d="M256 498c-141 0-256-86-256-192 0-61 39-116 98-151l-13-123c-2-10 7-18 16-18 3 0 7 1 10 4l114 98c10-1 20-2 31-2 141 0 256 86 256 192 0 106-115 192-256 192z m0-352c-9 0-18 0-28 1l-14 2-10-9-83-71 9 82 3 21-18 10c-53 31-83 76-83 124 0 88 100 160 224 160 124 0 224-72 224-160 0-88-100-160-224-160z"/>
<glyph unicode="&#57596;" d="M448 384l-224 0 0 29c0 19-16 35-35 35l-125 0c-18 0-32-14-32-32l0-320c0-18 14-32 32-32l384 0c18 0 32 14 32 32l0 256c0 18-14 32-32 32z m0-288l-384 0 0 320 126 0c2 0 2-1 2-3l0-61 256 0z"/>
<glyph unicode="&#57444;" d="M384 448l-288 0c-9 0-16 7-16 16 0 9 7 16 16 16l288 0c9 0 16-7 16-16 0-9-7-16-16-16z m-280-200c-6-6-6-16 0-22 6-7 17-7 23 0l97 97 0-275c0-9 7-16 16-16 4 0 8 2 11 5 3 3 5 7 5 11l0 275 97-97c6-7 17-7 23 0 6 6 6 16 0 22l-136 136z"/>
<glyph unicode="&#57374;" d="M114 430l-16-16c-43-42-66-98-66-158 0-60 23-116 66-158 21-22 46-38 74-50 2 0 4-1 6-1 6 0 12 4 15 10 3 8-1 18-9 21-24 10-45 24-64 42-36 37-56 85-56 136 0 51 20 99 56 136l16 16 88-88 0 192-192 0z m300-332c43 42 66 98 66 158 0 60-23 116-66 158-21 22-46 38-74 50-8 3-17-1-21-9-3-8 1-18 9-21 24-10 45-24 64-42 36-37 56-85 56-136 0-51-20-99-56-136l-16-16-88 88 0-192 192 0-82 82z"/>
<glyph unicode="&#57354;" d="M128 160l-64 0 0 192 64 0 0 32-62 0c-17 0-34-17-34-34l0-192c0-18 17-30 34-30l62 0z m96 224l0-32 224 0 0-192-224 0 0-32 226 0c18 0 30 12 30 30l0 192c0 17-12 34-30 34z m32-320l-64 0 0 384 64 0c9 0 16 7 16 16 0 9-7 16-16 16l-160 0c-9 0-16-7-16-16 0-9 7-16 16-16l64 0 0-384-64 0c-9 0-16-7-16-16 0-9 7-16 16-16l160 0c9 0 16 7 16 16 0 9-7 16-16 16z"/>
<glyph unicode="&#57356;" d="M448 448l-384 0c-18 0-32-14-32-32l0-320c0-18 14-32 32-32l384 0c18 0 32 14 32 32l0 320c0 18-14 32-32 32z m0-352l-384 0 0 224 384 0z m-384 256l0 64 384 0 0-64z"/>
<glyph unicode="&#57396;" d="M256 512c-141 0-256-115-256-256 0-141 115-256 256-256 141 0 256 115 256 256 0 141-115 256-256 256z m0-480c-124 0-224 100-224 224 0 124 100 224 224 224 124 0 224-100 224-224 0-124-100-224-224-224z m-96 96l224 128-224 128z"/>
<glyph unicode="&#57421;" d="M448 480l-320 0c-18 0-32-14-32-32l0-128 32 0 0 128 320 0 0-320-128 0 0-32 128 0c18 0 32 14 32 32l0 320c0 18-14 32-32 32z m-400-240c0-9 7-16 16-16l137 0-160-160c-6-6-6-16 0-23 4-3 8-4 12-4 4 0 8 1 11 4l160 160 0-137c0-9 7-16 16-16 9 0 16 7 16 16l0 192-192 0c-9 0-16-7-16-16z"/>
<glyph unicode="&#57588;" d="M480 480l-448 0c-18 0-23-12-13-26l154-204c10-14 19-40 19-58l0-160c0-13 7-21 17-21 4 0 8 1 12 3l70 36c16 8 29 28 29 46l0 96c0 18 9 44 19 58l154 204c10 14 5 26-13 26z m-166-211c-15-20-26-52-26-77l0-96c0-5-6-15-11-18l-53-26 0 140c0 25-11 57-26 77l-134 179 384 0z"/>
<glyph unicode="&#57417;" d="M352 219l0-155-288 0 0 320 169 0 34 32-203 0c-18 0-32-14-32-32l0-320c0-18 14-32 32-32l288 0c18 0 32 14 32 32l0 185z m-114-16c4 2 7 4 10 7l222 209c13 12 13 33 0 46l-5 5c-13 13-34 13-46 0l-222-208c-3-3-6-7-8-12l-24-63c-2-5 3-10 8-8z"/>
<glyph unicode="&#57591;" d="M435 433c-42 43-99 66-158 66-60 0-117-23-159-66-42-42-66-98-66-158 0-60 24-116 66-158l15-16-69-69 160 0 0 160-68-68-15 15c-37 37-57 85-57 136 0 51 20 100 57 136 36 36 84 56 135 56 52 0 100-20 136-56 37-36 56-85 56-136 0-51-19-99-56-136-6-6-6-16 0-22 6-7 17-7 23 0 42 42 65 98 65 158 0 60-23 116-65 158z m-142-154c-3 3-5 7-5 11l0 115c0 9-7 16-16 16-9 0-16-7-16-16l0-121c0-9 3-17 9-23l86-86c3-3 7-4 12-4 4 0 8 1 11 4 6 7 6 17 0 23z"/>
<glyph unicode="&#57595;" d="M432 176c-9 0-16-7-16-16l0-96-352 0 0 96c0 9-7 16-16 16-9 0-16-7-16-16l0-96c0-18 14-32 32-32l352 0c18 0 32 14 32 32l0 96c0 9-7 16-16 16z m-192 0l136 136c6 6 6 16 0 22-6 7-17 7-23 0l-97-97 0 259c0 4-2 8-5 11-3 3-7 5-11 5-9 0-16-7-16-16l0-259-97 97c-6 7-17 7-23 0-6-6-6-16 0-22z"/>
<glyph unicode="&#57578;" d="M464 320l-224 0c-9 0-16-7-16-16 0-9 7-16 16-16l224 0c9 0 16 7 16 16 0 9-7 16-16 16z m16 80c0 9-7 16-16 16l-416 0c-9 0-16-7-16-16 0-9 7-16 16-16l416 0c9 0 16 7 16 16z m-16-176l-224 0c-9 0-16-7-16-16 0-9 7-16 16-16l224 0c9 0 16 7 16 16 0 9-7 16-16 16z m0-96l-224 0c-9 0-16-7-16-16 0-9 7-16 16-16l224 0c9 0 16 7 16 16 0 9-7 16-16 16z"/>
<glyph unicode="&#57577;" d="M496 64l-16 0 0 272c0 9-7 16-16 16l-96 0c-9 0-16-7-16-16l0-272-32 0 0 400c0 9-7 16-16 16l-96 0c-9 0-16-7-16-16l0-400-32 0 0 176c0 9-7 16-16 16l-96 0c-9 0-16-7-16-16l0-176-16 0c-9 0-16-7-16-16 0-9 7-16 16-16l480 0c9 0 16 7 16 16 0 9-7 16-16 16z m-432 0l0 160 64 0 0-160z m160 0l0 384 64 0 0-384z m160 0l0 256 64 0 0-256z"/>
<glyph unicode="&#57636;" d="M400 32l-256 0c-21 0-28 10-31 17-2 6-4 18 12 32l184 165c3 3 4 6 4 10 0 4-1 7-4 10l-184 165c-16 14-14 26-12 32 3 7 10 17 31 17l256 0c26 0 48-22 48-48l0-48c0-9-7-16-16-16-9 0-16 7-16 16l0 48c0 9-7 16-16 16l-246 0 176-159c10-8 15-20 15-33 0-13-5-25-15-33l-176-159 246 0c9 0 16 7 16 16l0 48c0 9 7 16 16 16 9 0 16-7 16-16l0-48c0-26-22-48-48-48z"/>
<glyph unicode="&#57598;" d="M480 237l0 179c0 18-14 32-32 32l-384 0c-18 0-32-14-32-32l0-320c0-18 14-32 32-32l243 0c8 0 16 3 22 9l142 142c6 6 9 14 9 22z m-160-128l0 115 115 0z m128 147l-128 0c-18 0-32-14-32-32l0-128-224 0 0 320 384 0z"/>
<glyph unicode="&#57637;" d="M368 0l136 136c6 6 6 16 0 22-6 7-17 7-23 0l-97-97 0 259c0 4-2 8-5 11-3 3-7 5-11 5-9 0-16-7-16-16l0-259-97 97c-6 7-17 7-23 0-6-6-6-16 0-22z m-224 512l-136-136c-6-6-6-16 0-22 6-7 17-7 23 0l97 97 0-259c0-4 2-8 5-11 3-3 7-5 11-5 9 0 16 7 16 16l0 259 97-97c6-7 17-7 23 0 6 6 6 16 0 22z"/>
<glyph unicode="&#57371;" d="M433 394c-42 42-98 66-158 66-59 0-115-24-158-65l-85 85 0-192 192 0-84 84c36 36 84 55 135 55 51 0 100-19 136-56 75-75 75-196 0-271-75-75-197-75-272 0-6 6-16 6-22 0-7-7-7-17 0-23 43-44 101-65 158-65 57 0 115 21 158 65 88 87 88 230 0 317z"/>
</font>
</defs>
</svg>
